Неофициальный клуб пользователей HD видео плеера WD TV


»Юзер: »Пароль:   Запомнить? 
WDTV Forum / Форум про WD TV Gen2 / Опыт эксплуатации / Перескакивает на след файл при просмотре MKV
Написано:  06 Апр 2011 10:47
Добрый день! у меня wd tv hd gen2 (1.01.79). При просмотре некоторых фильмов mkv на нескольких определенных местах фильм прерывается и перескакивает на начало следущего фильма. Если перед этим моментом нажать на перемотку и перемотать вперед несколько минут, а потом снова нажать на воспроизведение, все норм. Что может это быть? Складывается такое впечатление, что это кривой mkv. Вот инфо фильма, на котором это происходило:
Цитата:
General
Complete name                    : K:\Опасный Банкок_720p.mkv
Format                           : Matroska
File size                        : 8.45 GiB
Duration                         : 1h 39mn
Overall bit rate                 : 12.2 Mbps
Movie name                       : Bangkok Dangerous (200 - Release for HDClub
Encoded date                     : UTC 2009-01-11 09:17:46
Writing application              : mkvmerge v2.1.0 ('Another Place To Fall' built on Aug 19 2007 13:40:07
Writing library                  : libebml v0.7.7 + libmatroska v0.8.1

Video
ID                               : 1
Format                           : AVC
Format/Info                      : Advanced Video Codec
Format profile                   : High@L4.1
Format settings, CABAC           : Yes
Format settings, ReFrames        : 6 frames
Muxing mode                      : Container profile=Unknown@4.1
Codec ID                         : V_MPEG4/ISO/AVC
Duration                         : 1h 39mn
Bit rate                         : 9 681 Kbps
Nominal bit rate                 : 9 925 Kbps
Width                            : 1 280 pixels
Height                           : 720 pixels
Display aspect ratio             : 16:9
Frame rate                       : 23.976 fps
Resolution                       : 8 bits
Colorimetry                      : 4:2:0
Scan type                        : Progressive
Bits/(Pixel*Frame)               : 0.438
Stream size                      : 6.70 GiB (79%)
Title                            : Release for HDclub
Writing library                  : x264 core 65 r1070M 6f7c9be
Encoding settings                : cabac=1 / ref=6 / deblock=1:-3:-3 / analyse=0x3:0x133 / me=umh / subme=9 / psy_rd=1.1:0.0 / mixed_ref=1 / me_range=32 / chroma_me=1 / trellis=0 / 8x8dct=1 / cqm=2 / deadzone=11,9 / chroma_qp_offset=-2 / threads=6 / nr=0 / decimate=1 / mbaff=0 / bframes=16 / b_pyramid=0 / b_adapt=1 / b_bias=0 / direct=1 / wpredb=1 / keyint=250 / keyint_min=25 / scenecut=40(pre) / rc=2pass / bitrate=9925 / ratetol=1.0 / qcomp=0.60 / qpmin=10 / qpmax=51 / qpstep=4 / cplxblur=20.0 / qblur=0.5 / ip_ratio=1.40 / pb_ratio=1.30 / aq=1:0.80
Language                         : English

Audio #1
ID                               : 2
Format                           : DTS
Format/Info                      : Digital Theater Systems
Codec ID                         : A_DTS
Duration                         : 1h 39mn
Bit rate mode                    : Constant
Bit rate                         : 755 Kbps
Channel(s)                       : 6 channels
Channel positions                : Front: L C R, Side: L R, LFE
Sampling rate                    : 48.0 KHz
Resolution                       : 24 bits
Video delay                      : 75ms
Stream size                      : 536 MiB (6%)
Title                            : DTS 5.1 768k Dub
Language                         : Russian

Audio #2
ID                               : 3
Format                           : DTS
Format/Info                      : Digital Theater Systems
Codec ID                         : A_DTS
Duration                         : 1h 39mn
Bit rate mode                    : Constant
Bit rate                         : 1 510 Kbps
Channel(s)                       : 6 channels
Channel positions                : Front: L C R, Side: L R, LFE
Sampling rate                    : 48.0 KHz
Resolution                       : 24 bits
Stream size                      : 1.05 GiB (12%)
Title                            : DTS 5.1 1536kbps
Language                         : English

Text #1
ID                               : 4
Format                           : UTF-8
Codec ID                         : S_TEXT/UTF8
Codec ID/Info                    : UTF-8 Plain Text
Language                         : Russian

Text #2
ID                               : 5
Format                           : UTF-8
Codec ID                         : S_TEXT/UTF8
Codec ID/Info                    : UTF-8 Plain Text
Language                         : English

Написано:  06 Апр 2011 11:09
если осталось в торренте перехешировать .
__________________
Sharp LC-32X20RU + WDTV Gen2 + WDTV Live (если понравилось 41001352107159 яндекс)
Написано:  06 Апр 2011 13:20
не понял... что сделать?
Написано:  06 Апр 2011 13:26   Отредактировано: touch
ну как вариант - косяк со сборкой контейнера
попробуй пересобрать его в MKVmerge
__________________
Где купить WD TV: Live Streaming
Написано:  06 Апр 2011 18:13
Наверно, проще скачать другой вариант, чем ждать пол суток... спасибо..
Написано:  06 Апр 2011 19:51
ошибаетесь это просто переделка, а не перекодирование,в зависимости от мощности компа с ремуксом это займет примерно 20-30 минут
__________________
Sharp LC-32X20RU + WDTV Gen2 + WDTV Live (если понравилось 41001352107159 яндекс)
Написано:  09 Апр 2011 08:51
Как я понимаю, это из-за этого параметра "Format settings, ReFrames: 6 frames"?
Сколько он должен быть для нормального воспроизведения?
И, где-то я читал, что такое может происходить только на 1080i?
Написано:  09 Апр 2011 09:44
пора бы знать для ген2 и лайв серии эти параметры вообще не чуствительны,к ReFrames был чуствителен ген1 !
__________________
Sharp LC-32X20RU + WDTV Gen2 + WDTV Live (если понравилось 41001352107159 яндекс)
Написано:  11 Апр 2011 10:02
тогда это просто кривая сборка MKV?
Написано:  11 Апр 2011 10:09   Отредактировано: alukard
вам уже было предложено 2 варианта что можно сделать с файлом, проверили ?!
если после пересборки косяк останется,то точно частично битый файл.
__________________
Sharp LC-32X20RU + WDTV Gen2 + WDTV Live (если понравилось 41001352107159 яндекс)

Поделитесь со своими друзьями в соцсетях:

WDTV Forum / Форум про WD TV Gen2 / Опыт эксплуатации / Перескакивает на след файл при просмотре MKV