Неофициальный клуб пользователей HD видео плеера WD TV


»Юзер: »Пароль:   Запомнить? 
Написано:  31 Мар 2011 20:05
Неоткрывает этот фильм.
Общее
Уникальный идентификатор         : 230299748343653883549910529504520173605 (0xAD421E3F356FBD74A276FBC6FAC3F825)
Полное имя                       : D:\Spartacus - Gods of the Arena [HD]..mkv
Формат                           : Matroska
Размер файла                     : 10,4 Гбайт
Продолжительность                : 5 ч. 36 м.
Общий поток                      : 4426 Кбит/сек
Дата кодирования                 : UTC 2011-02-28 22:44:43
Программа кодирования            : mkvmerge v4.4.0 ('Die Wiederkehr') сборка от Nov  7 2010 22:17:07
Библиотека кодирования           : libebml v1.0.0 + libmatroska v1.0.0

Видео
Идентификатор                    : 1
Формат                           : AVC
Формат/Информация                : Advanced Video Codec
Профиль формата                  : High@L3.1
Параметр CABAC формата           : Да
Параметр ReFrames формата        : 4 кадры
Параметры GOP формата            : M=2, N=4
Режим смешивания                 : Header stripping
Идентификатор кодека             : V_MPEG4/ISO/AVC
Продолжительность                : 5 ч. 36 м.
Битрейт                          : 4041 Кбит/сек
Ширина                           : 1280 пикс.
Высота                           : 720 пикс.
Соотношение сторон               : 16:9
Частота кадров                   : 23,976 кадр/сек
Цветовое пространство            : YUV
Подвыборка цветности             : 4:2:0
Битовая глубина                  : 8 бит
Тип развёртки                    : Прогрессивная
Бит/(Пиксели*Кадры)              : 0.183
Размер потока                    : 9,30 Гбайт (89%)
Библиотека кодирования           : x264 core 112 r1834 a51816a
Настройки программы              : cabac=1 / ref=1 / deblock=1:0:0 / analyse=0x3:0x113 / me=hex / subme=7 / psy=1 / psy_rd=1.00:0.00 / mixed_ref=0 / me_range=16 / chroma_me=1 / trellis=1 / 8x8dct=1 / cqm=0 / deadzone=21,11 / fast_pskip=1 / chroma_qp_offset=-2 / threads=12 / sliced_threads=0 / nr=0 / decimate=1 / interlaced=0 / constrained_intra=0 / bframes=3 / b_pyramid=2 / b_adapt=1 / b_bias=0 / direct=1 / weightb=1 / open_gop=0 / weightp=2 / keyint=250 / keyint_min=25 / scenecut=40 / intra_refresh=0 / rc_lookahead=40 / rc=2pass / mbtree=1 / bitrate=4041 / ratetol=1.0 / qcomp=0.60 / qpmin=0 / qpmax=51 / qpstep=4 / cplxblur=20.0 / qblur=0.5 / ip_ratio=1.40 / aq=1:1.00

Аудио
Идентификатор                    : 2
Формат                           : AC-3
Формат/Информация                : Audio Coding 3
Расширение режима                : CM (complete main)
Режим смешивания                 : Header stripping
Идентификатор кодека             : A_AC3
Продолжительность                : 5 ч. 36 м.
Вид битрейта                     : Постоянный
Битрейт                          : 384 Кбит/сек
Канал(ы)                         : 2 канала(ов)
Расположение каналов             : Front: L R
Частота                          : 48,0 КГц
Битовая глубина                  : 16 бит
Метод сжатия                     : С потерями
Размер потока                    : 925 Мбайт (9%)
Написано:  31 Мар 2011 20:08
а фак почитать http://wdhd.ru/faq.php?q_id=13 ,варианты решения описаны тут http://wdhd.ru/board/index.php?a=vtopic&t=1246 .
И не написали какая модель,на расстоянии не угадываем ?!
__________________
Sharp LC-32X20RU + WDTV Gen2 + WDTV Live (если понравилось 41001352107159 яндекс)
Написано:  05 Май 2011 20:12
Спасибо, разобрался.

Поделитесь со своими друзьями в соцсетях: