Неофициальный клуб пользователей HD видео плеера WD TV


»Юзер: »Пароль:   Запомнить? 
WDTV Forum / Форум про WD TV Live / Опыт эксплуатации / Не читает mpg и некоторые avi
Написано:  22 Мар 2011 16:14
В пинакле студио 14 делала домашнее видео. С одними и теми же настройками: сжатие mpeg-2, разрешение 480*576, частота кадров 2400кбит\сек. Одни mpeg файлы читает, на другие пишет "Невозможно воспроизвести выбранный файл. Сведения о поддерживаемых файловых форматах см в руководстве пользователя."
Такую же надпись пишет при попытке воспроизведения avi. В чем может быть дело, кто с таким сталкивался, помогите советом. Прошивка официальная, 1.04.22
Написано:  22 Мар 2011 16:16
предоставляем полное медианфо файлов,на кофейной гуще можно долго гадать ! http://wdhd.ru/faq.php?q_id=21
__________________
Sharp LC-32X20RU + WDTV Gen2 + WDTV Live (если понравилось 41001352107159 яндекс)
Написано:  22 Мар 2011 16:44
Переименовала на английские название mpg-файлов, прочитал. А avi таким образом заставить прочитать не смогла.
alukard, спасибо!
Написано:  22 Мар 2011 16:56
General
Complete name                    : F:\home video\2007\neapl1007.avi
Format                           : AVI
Format/Info                      : Audio Video Interleave
Format_Commercial_IfAny          : DVCPRO
Format profile                   : OpenDML
File size                        : 8.30 GiB
Duration                         : 39mn 10s
Overall bit rate                 : 30.3 Mbps
Recorded date                    : 2007-10-20 12:00:38

Video
ID                               : 0
Format                           : DV
Format_Commercial_IfAny          : DVCPRO
Codec ID                         : dvsd
Codec ID/Hint                    : Sony
Duration                         : 39mn 10s
Bit rate mode                    : Constant
Bit rate                         : 24.4 Mbps
Width                            : 720 pixels
Height                           : 576 pixels
Display aspect ratio             : 4:3
Frame rate mode                  : Constant
Frame rate                       : 25.000 fps
Standard                         : PAL
Color space                      : YUV
Chroma subsampling               : 4:2:0
Bit depth                        : 8 bits
Scan type                        : Interlaced
Compression mode                 : Lossy
Bits/(Pixel*Frame)               : 2.357
Stream size                      : 7.88 GiB (95%)
Encoding settings                : ae mode=full automatic / wb mode=automatic / white balance= / fcm=manual focus

Audio
ID                               : 1
Format                           : PCM
Format settings, Endianness      : Little
Format settings, Sign            : Signed
Codec ID                         : 1
Codec ID/Hint                    : Microsoft
Duration                         : 39mn 10s
Bit rate mode                    : Constant
Bit rate                         : 1 536 Kbps
Channel(s)                       : 2 channels
Sampling rate                    : 48.0 KHz
Bit depth                        : 16 bits
Stream size                      : 430 MiB (5%)
Interleave, duration             : 230 ms (5.75 video frames)
Написано:  22 Мар 2011 17:23
Почитала форум, разобралась. Вопрос снимаю.
Написано:  22 Мар 2011 18:02
ну и гут,я так и думал что кодек которого незаявлено скорее всего в видео.
__________________
Sharp LC-32X20RU + WDTV Gen2 + WDTV Live (если понравилось 41001352107159 яндекс)
Написано:  24 Мар 2011 21:45
Общее
Полное имя                       : C:\Documents and Settings\Paradisa\Мои документы\Pinnacle Studio\My Projects\Гджубга  аквапарк Краснодарский край 2009 год .avi
Формат                           : AVI
Формат/Информация                : Audio Video Interleave
Format_Commercial_IfAny          : DVCPRO
Профиль формата                  : OpenDML
Размер файла                     : 3,43 Гбайт
Продолжительность                : 16 м.
Общий поток                      : 30,3 Мбит/сек
Дата записи                      : 2009-08-14 15:54:02
Библиотека кодирования           : o

Видео
Идентификатор                    : 0
Формат                           : DV
Format_Commercial_IfAny          : DVCPRO
Идентификатор кодека             : dvsd
Идентификатор кодека/Подсказка   : Sony
Продолжительность                : 16 м.
Вид битрейта                     : Постоянный
Битрейт                          : 24,4 Мбит/сек
Ширина                           : 720 пикс.
Высота                           : 576 пикс.
Соотношение сторон               : 4:3
Режим частоты кадров             : Постоянный
Частота кадров                   : 25,000 кадр/сек
Стандарт вещания                 : PAL
Цветовое пространство            : YUV
Подвыборка цветности             : 4:2:0
Битовая глубина                  : 8 бит
Тип развёртки                    : Чересстрочная
Метод сжатия                     : С потерями
Бит/(Пиксели*Кадры)              : 2.357
Размер потока                    : 3,26 Гбайт (95%)
Настройки программы              : ae mode=full automatic / wb mode=automatic / white balance= / fcm=manual focus

Аудио
Идентификатор                    : 1
Формат                           : PCM
Параметр Endianness формата      : Little
Параметр Sign формата            : Signed
Идентификатор кодека             : 1
Идентификатор кодека/Подсказка   : Microsoft
Продолжительность                : 16 м.
Вид битрейта                     : Постоянный
Битрейт                          : 1536 Кбит/сек
Канал(ы)                         : 2 канала(ов)
Частота                          : 48,0 КГц
Битовая глубина                  : 16 бит
Размер потока                    : 178 Мбайт (5%)
Продолжительность промежутка     : 1000  мс. (24,99 видеокадров)
Написано:  24 Мар 2011 21:49
Извените не понимаю.Что делать дальше ???
Написано:  24 Мар 2011 21:55
с этим видео,только полное перекодирование со сменой кодека.
__________________
Sharp LC-32X20RU + WDTV Gen2 + WDTV Live (если понравилось 41001352107159 яндекс)
Написано:  24 Мар 2011 21:55   Отредактировано: vadya
а как его перекодировать  ????
Написано:  24 Мар 2011 22:07   Отредактировано: alukard
ставите любой удобный для вас перекодировщик и переделываете на компе ,похожая тема в помощь http://wdhd.ru/board/index.php?a=vtopic&t=3025
__________________
Sharp LC-32X20RU + WDTV Gen2 + WDTV Live (если понравилось 41001352107159 яндекс)
Написано:  24 Мар 2011 22:16
Спосибо.
А почему видео которое плеер показывал раньше сейчас не показывает ???
Написано:  24 Мар 2011 22:21   Отредактировано: touch
Цитата:
А почему видео которое плеер показывал раньше сейчас не показывает?

да щас угадаем, погоди чуток
mediainfo ускорит этот процесс
__________________
Где купить WD TV: Live Streaming
Написано:  25 Мар 2011 10:02   Отредактировано: alukard
Всем привет! Кто знает по какой причине не читает файл?
[ Скрытый текст ]
Написано:  25 Мар 2011 11:02
да вроде нет никакого криминала,поэтому приводим полное название файла и в какой папке лежит ?!
__________________
Sharp LC-32X20RU + WDTV Gen2 + WDTV Live (если понравилось 41001352107159 яндекс)
Написано:  25 Мар 2011 13:30
Общее
Полное имя                       : F:\Video 2\Поменяться местами ( Trading Places ) 1983.avi
Формат                           : AVI
Формат/Информация                : Audio Video Interleave
Размер файла                     : 1,37 Гбайт
Продолжительность                : 1 ч. 51 м.
Общий поток                      : 1753 Кбит/сек
Программа кодирования            : FairUse Wizard - http://fairusewizard.com
Библиотека кодирования           : The best and REALLY easy backup tool

Видео
Идентификатор                    : 0
Формат                           : MPEG-4 Visual
Параметр BVOP формата            : 1
Параметр QPel формата            : Нет
Параметр GMC формата             : Без точки перехода
Параметр матрицы формата         : Default (H.263)
Режим смешивания                 : Сжатый битовый поток
Идентификатор кодека             : DX50
Идентификатор кодека/Подсказка   : DivX 5
Продолжительность                : 1 ч. 51 м.
Битрейт                          : 1583 Кбит/сек
Ширина                           : 704 пикс.
Высота                           : 384 пикс.
Соотношение сторон               : 16:9
Частота кадров                   : 25,000 кадр/сек
Цветовое пространство            : YUV
Подвыборка цветности             : 4:2:0
Битовая глубина                  : 8 бит
Тип развёртки                    : Прогрессивная
Метод сжатия                     : С потерями
Бит/(Пиксели*Кадры)              : 0.234
Размер потока                    : 1,23 Гбайт (90%)
Библиотека кодирования           : DivX 6.8.3-6.8.4 (UTC 2008-06-07)

Аудио
Идентификатор                    : 1
Формат                           : AC-3
Формат/Информация                : Audio Coding 3
Расширение режима                : CM (complete main)
Идентификатор кодека             : 2000
Продолжительность                : 1 ч. 51 м.
Вид битрейта                     : Постоянный
Битрейт                          : 160 Кбит/сек
Канал(ы)                         : 2 канала(ов)
Расположение каналов             : Front: L R
Частота                          : 48,0 КГц
Битовая глубина                  : 16 бит
Метод сжатия                     : С потерями
Размер потока                    : 128 Мбайт (9%)
Выравнивание                     : Разделение по промежуткам
Продолжительность промежутка     : 40  мс. (1,00 видеокадр)
Время предзагрузки промежутка    : 500 ms
Написано:  25 Мар 2011 13:34   Отредактировано: kent150
прошивки менял. пытаюсь смотреть данный фильм по сети с компа. другие фильмы открываются! Вот и незнаю! самое интересное у меня до этого был WD HD предыдущей модели (без сети)с прошивкой WDTV_1_03_01_RU-eldrako-osdMod_v0.5_2 (к сожалению сломался). он эти фильмы открывал.
Написано:  25 Мар 2011 14:09
лучше вначале перед русским английское название добавьте,и для ознакомления http://wdhd.ru/board/index.php?a=vtopic&t=1246
__________________
Sharp LC-32X20RU + WDTV Gen2 + WDTV Live (если понравилось 41001352107159 яндекс)
Написано:  25 Мар 2011 15:13
alukard:

Никогда бы не подумал...
перенес в другую папку и всё заработало

СПАСИБО
Написано:  01 Май 2011 16:37
Всем привет!
Ведро не сожрало вот такой файлик:
[ Скрытый текст ]


Почему и что делать? ))
Написано:  01 Май 2011 17:03   Отредактировано: alukard
риппер криворукий,вместо .mkv должно быть .ts и еще если это ген2 или лайв то вначале лучше название на английском .Более подробно тут http://wdhd.ru/board/index.php?a=vtopic&t=1246
__________________
Sharp LC-32X20RU + WDTV Gen2 + WDTV Live (если понравилось 41001352107159 яндекс)
Написано:  12 Мар 2013 02:50
Здравствуйте, подскажите пжл в чем причина не читания файлов AVI в автомобильном плеере,представляю вам информацию о читаемом файле:
Общее
Полное имя                               : E:\videos\Above & Beyond feat. Zoe Johnston -  Love Is Not Enough.avi
Формат                                   : AVI
Формат/Информация                        : Audio Video Interleave
Размер файла                             : 28,1 Мбайт
Продолжительность                        : 4 м. 33 с.
Общий поток                              : 861 Кбит/сек
Программа кодирования                    : MEncoder SVN-r33883(20110719-gcc4.5.2)
Библиотека кодирования                   : MPlayer

Видео
Идентификатор                            : 0
Формат                                   : MPEG-4 Visual
Профиль формата                          : Advanced Simple@L5
Параметр BVOP формата                    : 2
Параметр QPel формата                    : Нет
Параметр GMC формата                     : Без точки перехода
Параметр матрицы формата                 : Default (H.263)
Идентификатор кодека                     : XVID
Идентификатор кодека/Подсказка           : XviD
Продолжительность                        : 4 м. 33 с.
Битрейт                                  : 657 Кбит/сек
Ширина                                   : 720 пикселей
Высота                                   : 408 пикселей
Соотношение сторон                       : 16:9
Соотношение сторон в оригинале           : 16:9
Частота кадров                           : 24,000 кадра/сек
Цветовое пространство                    : YUV
Субдискретизация насыщенности            : 4:2:0
Битовая глубина                          : 8 бит
Тип развёртки                            : Прогрессивная
Метод сжатия                             : С потерями
Бит/(Пиксели*Кадры)                      : 0.093
Размер потока                            : 21,4 Мбайт (76%)
Библиотека кодирования                   : XviD 1.2.1 (UTC 2008-12-04)

Аудио
Идентификатор                            : 1
Формат                                   : MPEG Audio
Версия формата                           : Version 1
Профиль формата                          : Layer 3
Режим                                    : Joint stereo
Расширение режима                        : MS Stereo
Идентификатор кодека                     : 55
Идентификатор кодека/Подсказка           : MP3
Продолжительность                        : 4 м. 33 с.
Вид битрейта                             : Постоянный
Битрейт                                  : 192 Кбит/сек
Каналы                                   : 2 канала
Частота                                  : 44,1 КГц
Метод сжатия                             : С потерями
Задержка видео                           : 42 мс.
Размер потока                            : 6,25 Мбайт (22%)
Выравнивание                             : Соединение по промежуткам
Продолжительность промежутка             : 26  мс. (0,63 видеокадр)
Время предзагрузки промежутка            : 522  мс.
Библиотека кодирования                   : LAME3.98.4

и, не читаемом:
Общее
Полное имя                               : E:\videos\07.Nikita - 2012..avi
Формат                                   : AVI
Формат/Информация                        : Audio Video Interleave
Размер файла                             : 79,2 Мбайт
Продолжительность                        : 3 м. 0 с.
Общий поток                              : 3688 Кбит/сек
Программа кодирования                    : Lavf51.12.1

Видео
Идентификатор                            : 0
Формат                                   : xvid
Идентификатор кодека                     : xvid
Продолжительность                        : 3 м. 0 с.
Битрейт                                  : 3549 Кбит/сек
Ширина                                   : 800 пикселей
Высота                                   : 600 пикселей
Соотношение сторон                       : 4:3
Частота кадров                           : 25,000 кадров/сек
Бит/(Пиксели*Кадры)                      : 0.296
Размер потока                            : 76,2 Мбайт (96%)

Аудио
Идентификатор                            : 1
Формат                                   : MPEG Audio
Версия формата                           : Version 1
Профиль формата                          : Layer 3
Режим                                    : Joint stereo
Идентификатор кодека                     : 55
Идентификатор кодека/Подсказка           : MP3
Продолжительность                        : 3 м. 0 с.
Вид битрейта                             : Постоянный
Битрейт                                  : 128 Кбит/сек
Каналы                                   : 2 канала
Частота                                  : 44,1 КГц
Метод сжатия                             : С потерями
Размер потока                            : 2,75 Мбайт (3%)
Выравнивание                             : Соединение по промежуткам
Продолжительность промежутка             : 26  мс. (0,65 видеокадр)
Время предзагрузки промежутка            : 26  мс.
Библиотека кодирования                   : LAME3.97

пробовал менять кодеки, не помогает.
Написано:  12 Мар 2013 08:00
Хм в каком автомобильном плеере ?
__________________
Sharp LC-32X20RU + WDTV Gen2 + WDTV Live (если понравилось 41001352107159 яндекс)
Написано:  12 Мар 2013 14:15
в DVD проигрывателе, пробовал конвертировать несколькими плеерами, и кодеки менял, ничего не помогает, один файл AVI читает, другой нет, может вы подскажите какой программой воспользоваться, читает AVI c кодеками xvid и divx, но опять таки пробовал самостоятельно кодировать нечитаемый файл в xvid, но толку нет, в итоге проигрыватель жалуется на кодек(информацию о таком файле предоставлял выше).
Написано:  12 Мар 2013 14:54   Отредактировано: alukard
Ну вообще-то тогда нужна конретная модель, у нас все таки по медиаплеерам вд, а характеристики других медиаплееров(проигрывателей) трудновато угадывать !
__________________
Sharp LC-32X20RU + WDTV Gen2 + WDTV Live (если понравилось 41001352107159 яндекс)

Поделитесь со своими друзьями в соцсетях:

WDTV Forum / Форум про WD TV Live / Опыт эксплуатации / Не читает mpg и некоторые avi