Неофициальный клуб пользователей HD видео плеера WD TV


»Юзер: »Пароль:   Запомнить? 
WDTV Forum / Форум про WD TV Gen2 / Опыт эксплуатации / проблема со звуком в слайдшоу
Написано:  14 Мар 2011 07:55
Привет всем,столкнулся вот с такой проблемой:с помощью программы Photodex ProShow Producer создал слайдшоу в HD формате (информация о файле будет ниже),запускаю файл на телевизоре видео идёт прекрасно,а звук только 3-5 сек и отключается.Пытаюсь перемотать,опять включаю повторяется та же ситуация со звуком.Дальше инререснее,пытаюсь перепустить заново файл включаю в том месте где была остановка,звук появляется,а видео пропадает,если включить с самого начала,то видео есть звука нет.Имею плазму,ресивер подключённый по оптике,пробовал в настройках плеера звук сделать аналоговым,ничего не меняется.Если кто то сможет дать совет буду очень благодарен.
Общее
Полное имя                       : G:\VIKA.mpg
Формат                           : MPEG-PS
Размер файла                     : 28,8 Гбайт
Продолжительность                : 1 ч. 7 м.
Общий поток                      : 61,1 Мбит/сек
Библиотека кодирования           : Photodex mpeg encoder

Видео
Идентификатор                    : 224 (0xE0)
Формат                           : MPEG Video
Версия формата                   : Version 2
Профиль формата                  : Main@High
Параметр BVOP формата            : Да
Параметр матрицы формата         : По умолчанию
Продолжительность                : 1 ч. 7 м.
Вид битрейта                     : Переменный
Битрейт                          : 60,0 Мбит/сек
Ширина                           : 1920 пикс.
Высота                           : 1080 пикс.
Соотношение сторон               : 16:9
Частота кадров                   : 59,940 кадр/сек
Стандарт вещания                 : NTSC
Цветовое пространство            : YUV
Подвыборка цветности             : 4:2:0
Битовая глубина                  : 8 бит
Тип развёртки                    : Прогрессивная
Метод сжатия                     : С потерями
Бит/(Пиксели*Кадры)              : 0.483
Размер потока                    : 28,1 Гбайт (98%)
Библиотека кодирования           : Photodex mpeg encoder

Аудио
Идентификатор                    : 192 (0xC0)
Формат                           : MPEG Audio
Версия формата                   : Version 1
Профиль формата                  : Layer 2
Продолжительность                : 1 ч. 7 м.
Вид битрейта                     : Постоянный
Битрейт                          : 224 Кбит/сек
Канал(ы)                         : 2 канала(ов)
Частота                          : 48,0 КГц
Метод сжатия                     : С потерями
Задержка видео                   : -16 мс.
Размер потока                    : 108 Мбайт (0%)
Написано:  14 Мар 2011 09:05
фпс поменьше сделайте,может из-за него и идет такая фигня.
__________________
Sharp LC-32X20RU + WDTV Gen2 + WDTV Live (если понравилось 41001352107159 яндекс)
Написано:  14 Мар 2011 09:14
простите я не совсем во всём разбираюсь,что такое фпс??Вы имеете ввиду не 1080,а 720?Так в этой программе нет возможности такого сделать,там всё автоматом,если HD,то только 1080.
Написано:  14 Мар 2011 10:23
это понизить Частота кадров                   : 59,940 кадр/сек
__________________
Sharp LC-32X20RU + WDTV Gen2 + WDTV Live (если понравилось 41001352107159 яндекс)
Написано:  14 Мар 2011 11:00
там автомат,нет возможности такое сделать,может есть ещё варианты,пргнать файл через какую-нибудь прогу????
Написано:  14 Мар 2011 11:09   Отредактировано: alukard
ну можете через мквмерге http://wdhd.ru/faq.php?q_id=13 ,но вот если он изначально так выдал поможет ли такая переделка (попробуйте где-нибудь 30 или 25 фпс поставить)
пс качайте версию не выше 4.00 ,так как после переделки версией выше будут глюки
__________________
Sharp LC-32X20RU + WDTV Gen2 + WDTV Live (если понравилось 41001352107159 яндекс)
Написано:  14 Мар 2011 17:51   Отредактировано: touch
Цитата:
Размер файла                     : 28,8 Гбайт
Продолжительность                : 1 ч. 7 м.

какой-то нереальнный размер для слайдшоу
даже в hd.. смотреть настройки программы - однозначно! с битрейтом и fps явно чего-то не то.. да blu-ray диски меньше весят, чем это слайдшоу!
__________________
Где купить WD TV: Live Streaming

Поделитесь со своими друзьями в соцсетях:

WDTV Forum / Форум про WD TV Gen2 / Опыт эксплуатации / проблема со звуком в слайдшоу