Неофициальный клуб пользователей HD видео плеера WD TV


»Юзер: »Пароль:   Запомнить? 
WDTV Forum / Форум про WD TV Gen1 / Опыт эксплуатации / Воспроизведение - проблема...
Написано:  12 Июн 2009 02:19
При воспроизведении сыпит картинку, и это уже на 40% фильмов, пробовал на 1,7 не официале и на 1,8 (Я Легенда бд, Оружейный барон, Хельсинг и т.д.)
Или загрузить другую прошивку.
Или переводить в другой формат .
Заранее благодарю.
Написано:  12 Июн 2009 07:10   Отредактировано: touch
нужны данные MediaInfo по фильмам, чтобы предметно говорить
так непонятно, в чём именно проблема
__________________
Где купить WD TV: Live Streaming
Написано:  12 Июн 2009 17:02
У меня просто безбожно рассыпается MKV файл с фильмом "Малышка на миллион". Причем рассыпается с самого первого кадра - с титров! И до самого конца. Не могу понять в чем дело

Высылаю медиаинфо:

General
Complete name                    : g:\movies\hdtv\malyshka\malishka1080.mkv
Format                           : Matroska
File size                        : 9.44 GiB
Duration                         : 2h 12mn
Overall bit rate                 : 10.2 Mbps
Movie name                       : -=HANSMER=-
Encoded date                     : UTC 2008-04-23 11:58:23
Writing application              : mkvmerge v2.2.0 ('Turn It On Again' built on Mar  4 2008 13:20:25
Writing library                  : libebml v0.7.7 + libmatroska v0.8.1

Video
ID                               : 1
Format                           : AVC
Format/Info                      : Advanced Video Codec
Format profile                   : High@L5.1
Format settings, CABAC           : Yes
Format settings, ReFrames        : 13 frames
Muxing mode                      : Container profile=Unknown@5.1
Codec ID                         : V_MPEG4/ISO/AVC
Duration                         : 2h 12mn
Bit rate                         : 8 590 Kbps
Nominal bit rate                 : 8 797 Kbps
Width                            : 1 920 pixels
Height                           : 800 pixels
Display aspect ratio             : 2.400
Frame rate                       : 23.976 fps
Resolution                       : 24 bits
Colorimetry                      : 4:2:0
Scan type                        : Progressive
Bits/(Pixel*Frame)               : 0.233
Stream size                      : 7.95 GiB (84%)
Title                            : Million.Dollar.Baby.2004.1080p.HDDVD.x264-SZ
Writing library                  : x264 core 54 svn-654
Encoding settings                : cabac=1 / ref=10 / deblock=1:-2:-1 / analyse=0x3:0x133 / me=umh / subme=6 / brdo=1 / mixed_ref=1 / me_range=16 / chroma_me=1 / trellis=1 / 8x8dct=1 / cqm=2 / deadzone=21,11 / chroma_qp_offset=0 / threads=2 / nr=0 / decimate=0 / mbaff=0 / bframes=3 / b_pyramid=1 / b_adapt=1 / b_bias=0 / direct=3 / wpredb=1 / bime=1 / keyint=250 / keyint_min=25 / scenecut=40(pre) / rc=2pass / bitrate=8797 / ratetol=1.0 / rceq='blurCplx^(1-qComp)' / qcomp=0.60 / qpmin=10 / qpmax=51 / qpstep=4 / cplxblur=20.0 / qblur=0.5 / ip_ratio=1.40 / pb_ratio=1.30
Language                         : English

Audio #1
ID                               : 2
Format                           : DTS
Format/Info                      : Digital Theater Systems
Codec ID                         : A_DTS
Duration                         : 2h 12mn
Bit rate mode                    : Constant
Bit rate                         : 755 Kbps
Channel(s)                       : 6 channels
Channel positions                : Front: L C R, Surround: L R, LFE
Sampling rate                    : 48.0 KHz
Resolution                       : 24 bits
Stream size                      : 716 MiB (7%)
Language                         : Russian

Audio #2
ID                               : 3
Format                           : AC-3
Format/Info                      : Audio Coding 3
Codec ID                         : A_AC3
Duration                         : 2h 12mn
Bit rate mode                    : Constant
Bit rate                         : 640 Kbps
Channel(s)                       : 6 channels
Channel positions                : Front: L C R, Surround: L R, LFE
Sampling rate                    : 48.0 KHz
Stream size                      : 607 MiB (6%)
Language                         : English
Написано:  12 Июн 2009 17:15
это перебор Format settings, ReFrames        : 13 frames
Написано:  12 Июн 2009 17:15
Ну вот, ответ на твой вопрос ref=10
Написано:  12 Июн 2009 17:23
А сколько должно быть максимум ReFrames?
С этим фильмом уже ничего не сделать?
Написано:  12 Июн 2009 21:54
Andrian проще не качать с таким ReFrames или 720 они идут
__________________
fryazino.net

Поделитесь со своими друзьями в соцсетях:

WDTV Forum / Форум про WD TV Gen1 / Опыт эксплуатации / Воспроизведение - проблема...