Неофициальный клуб пользователей HD видео плеера WD TV


»Юзер: »Пароль:   Запомнить? 
WDTV Forum / Форум про WD TV Gen2 / Опыт эксплуатации / Воспроизведение отключается
Написано:  15 Фев 2011 10:43
Всем привет. Скачал мквешку, 700 мегов. Включил просмотр, файл проигрался 5 секунд и выключился. Вот его инфо:

Общее

Полное имя                       : E:\Music\Robert Plant Rockwell 2009.mkv
Формат                           : Matroska
Размер файла                     : 700 Мбайт
Продолжительность                : 9 м. 55 с.
Общий поток                      : 9850 Кбит/сек
Дата кодирования                 : UTC 2011-01-16 08:08:45
Программа кодирования            : gdsmux
Библиотека кодирования           : Haali DirectShow Matroska Muxer 1.10.348.15

Видео
Идентификатор                    : 1
Формат                           : AVC
Формат/Информация                : Advanced Video Codec
Профиль формата                  : Main@L4.0
Параметр CABAC формата           : Да
Параметр ReFrames формата        : 2 кадры
Параметры GOP формата            : M=3, N=12
Идентификатор кодека             : V_MPEG4/ISO/AVC
Продолжительность                : 9 м. 55 с.
Вид битрейта                     : Переменный
Битрейт                          : 9206 Кбит/сек
Максимальный битрейт             : 10,6 Мбит/сек
Ширина                           : 1920 пикс.
Высота                           : 1080 пикс.
Соотношение сторон               : 16:9
Частота кадров                   : 25,000 кадр/сек
Цветовое пространство            : YUV
Подвыборка цветности             : 4:2:0
Битовая глубина                  : 8 бит
Тип развёртки                    : MBAFF
Бит/(Пиксели*Кадры)              : 0.178
Размер потока                    : 654 Мбайт (93%)
Заголовок                        : PID 4113
Язык                             : German
Основные цвета                   : BT.709-5, BT.1361, IEC 61966-2-4, SMPTE RP177
Характеристики трансфера         : BT.709-5, BT.1361
Коэффициенты матрицы             : BT.709-5, BT.1361, IEC 61966-2-4 709, SMPTE RP177

Аудио
Идентификатор                    : 2
Формат                           : AC-3
Формат/Информация                : Audio Coding 3
Расширение режима                : CM (complete main)
Идентификатор кодека             : A_AC3
Продолжительность                : 9 м. 55 с.
Вид битрейта                     : Постоянный
Битрейт                          : 448 Кбит/сек
Канал(ы)                         : 6 канала(ов)
Расположение каналов             : Front: L C R, Side: L R, LFE
Частота                          : 48,0 КГц
Битовая глубина                  : 16 бит
Метод сжатия                     : С потерями
Задержка видео                   : 22 мс.
Размер потока                    : 31,8 Мбайт (5%)
Заголовок                        : PID 4352
Язык                             : German

Что может быть и возможно ли исправить? Заранее спасибо.
__________________
WDTV Gen2, WDTV Live Streaming
Написано:  15 Фев 2011 11:01
можно попробовать в MKVmerge его пересобрать.. заодно посмотреть, не покажет ли ошибок каких, на видео/аудио потоках
__________________
Где купить WD TV: Live Streaming
Написано:  15 Фев 2011 16:34
Надо попробовать. На компе и плеере в телевизоре крутит нормально. Спасибо!
__________________
WDTV Gen2, WDTV Live Streaming
Написано:  20 Фев 2011 18:15   Отредактировано: mister62
Пропустил через mkvmerge, всё заработало! Спасибо!
Я с таким сталкивался в авишках, там пропускаю через дуб.
__________________
WDTV Gen2, WDTV Live Streaming
Написано:  21 Фев 2011 06:26
Правда я сделал это, вставив файл и запустив мультиплексирование, или надо было сделать по-другому?
__________________
WDTV Gen2, WDTV Live Streaming
Написано:  21 Фев 2011 13:40
да вроде правильно.. у тебя там русский вариант чтоли? у меня всё на англ. и кнопка называется Start Muxing
__________________
Где купить WD TV: Live Streaming
Написано:  22 Фев 2011 07:16
да, прога на русском
__________________
WDTV Gen2, WDTV Live Streaming

Поделитесь со своими друзьями в соцсетях:

WDTV Forum / Форум про WD TV Gen2 / Опыт эксплуатации / Воспроизведение отключается