Неофициальный клуб пользователей HD видео плеера WD TV


»Юзер: »Пароль:   Запомнить? 
WDTV Forum / Форум про WD TV Gen2 / Опыт эксплуатации / не показывает фильм 2
Написано:  09 Фев 2011 11:47
Просто остается черный экран и время фильма 0:00/0:00 .... плеер WD HD TV Gen2 прошивка 1.01.77.
 
Общее
Полное имя                       : K:\Duh.vremeni.3.Sledujuwij.shag.2011.P.DVDRip.avi
Формат                           : AVI
Формат/Информация                : Audio Video Interleave
Профиль формата                  : OpenDML
Размер файла                     : 2,06 Гбайт
Продолжительность                : 2 ч. 41 м.
Общий поток                      : 1824 Кбит/сек
Программа кодирования            : VirtualDubMod 1.5.10.2 (build 2540/release)
Библиотека кодирования           : VirtualDub build 32839/release

Видео
Идентификатор                    : 0
Формат                           : MPEG-4 Visual
Профиль формата                  : Advanced Simple@L5
Параметр BVOP формата            : 2
Параметр QPel формата            : Да
Параметр GMC формата             : 3 точки перехода
Параметр матрицы формата         : Default (H.263)
Режим смешивания                 : Сжатый битовый поток
Идентификатор кодека             : XVID
Идентификатор кодека/Подсказка   : XviD
Продолжительность                : 2 ч. 41 м.
Битрейт                          : 1617 Кбит/сек
Ширина                           : 720 пикс.
Высота                           : 400 пикс.
Соотношение сторон               : 16:9
Частота кадров                   : 29,970 кадр/сек
Цветовое пространство            : YUV
Подвыборка цветности             : 4:2:0
Битовая глубина                  : 8 бит
Тип развёртки                    : Прогрессивная
Метод сжатия                     : С потерями
Бит/(Пиксели*Кадры)              : 0.187
Размер потока                    : 1,82 Гбайт (89%)
Библиотека кодирования           : XviD 1.2.1 (UTC 2008-12-04)

Аудио
Идентификатор                    : 1
Формат                           : MPEG Audio
Версия формата                   : Version 1
Профиль формата                  : Layer 3
Идентификатор кодека             : 55
Идентификатор кодека/Подсказка   : MP3
Продолжительность                : 2 ч. 41 м.
Вид битрейта                     : Постоянный
Битрейт                          : 192 Кбит/сек
Канал(ы)                         : 2 канала(ов)
Частота                          : 44,1 КГц
Метод сжатия                     : С потерями
Задержка видео                   : 8 мс.
Размер потока                    : 221 Мбайт (11%)
Выравнивание                     : Разделение по промежуткам
Продолжительность промежутка     : 33  мс. (1,00 видеокадр)
Время предзагрузки промежутка    : 500 ms
Библиотека кодирования           : LAME3.89 (alpha)

Единственный вопрос по какому параметру здесь затык/проблема для воспроизведения?
Написано:  09 Фев 2011 11:49
проблема в этом Параметр GMC формата             : 3 точки перехода ,перекодировать или лучше скачать другой рип,также в помощь http://wdhd.ru/board/index.php?a=vtopic&t=1246 .
__________________
Sharp LC-32X20RU + WDTV Gen2 + WDTV Live (если понравилось 41001352107159 яндекс)
Написано:  09 Фев 2011 12:13
Скачать другой рип предпочтительней но тогда следующий вопрос сразу:
Качество : DVDRip
Формат: AVI
Видео кодек: XviD
Аудио кодек: MP3
Видео: XviD,720x480,(4:2:0),1 023 kbps,25.000 fps
Аудио: MP3,128kbps,44.1 KHz,2(ch)

По таким данным определить можно заранее стоит качать или нет?
Написано:  09 Фев 2011 12:38
по таким нет,мало информации .
__________________
Sharp LC-32X20RU + WDTV Gen2 + WDTV Live (если понравилось 41001352107159 яндекс)
Написано:  09 Фев 2011 12:39
неа, например о том же "Параметр GMC формата" тут ни слова! т.е. есть шанс столкнуться с точно такой же ситуацией.. а на каком тв ты смотришь это дело? почему 720p рипы не качаешь?
__________________
Где купить WD TV: Live Streaming
Написано:  09 Фев 2011 13:09
почему 720p рипы не качаю? Качаю
Но последнее время даже со скачанными в DVDRip формате фильмами стали проблемы возникать.
По тому минимуму инфо что дают на торрентах какое видео со 100% пойдет?
Написано:  09 Фев 2011 14:20
В большинстве случаях выкладывают еще инфо-файл к раздаче, по ниму то и можно всю инфо. о файле посмотреть.
__________________
WD TV Gen 2 (LaCie v0.3) + DWA-140 (v1.71)
Написано:  10 Фев 2011 00:45
Вот пример допустим, можно по этим данным заранее сказать пойдет или нет?
Формат: OGM
Видео кодек: H.26x
Аудио кодек: AC3
Видео: 123451920x1080p, 24 fps, ~27896 kbps
Аудио: 12345Аудио 1: 48 kHz, AC3 Dolby Digital, 2/0 (L,R) ch, ~192.00 kbps avg - Дубляж ТНТ
Аудио 2: DTS-HD MA, 5.1, 2178 kbps / 48 kHz / 16-bit (DTS Core: 5.1 / 48 kHz / 1509 kbps / 16-bit) - Английский
Тут идея появилась..по прикладываемым трейлерам пригодность поверять..функционировать будет?
Написано:  10 Фев 2011 09:02
ну уже говорилось лучше полное медиаинфо ,еще и строчка тут подозрительная Формат: OGM ,пробуйте качать ролики и там смотреть полное медиаинфо,а вообще есть еще такой трекер кинозал там выкладывают полное медиаинфо файлов.
__________________
Sharp LC-32X20RU + WDTV Gen2 + WDTV Live (если понравилось 41001352107159 яндекс)
Написано:  10 Фев 2011 12:57
Цитата:
по прикладываемым трейлерам пригодность поверять..

если сэмплы имеются в виду - то да, нормальный вариант! с другой стороны, достаточно на полное медиаинфо глянуть, чтобы понять, пойдёт фильм или нет (формат видео, звука и какой версией MKVmerge собран контейнер)
__________________
Где купить WD TV: Live Streaming
Написано:  11 Фев 2011 09:49
Цитата:
если сэмплы имеются в виду - то да, нормальный вариант! с другой стороны, достаточно на полное медиаинфо глянуть, чтобы понять, пойдёт фильм или нет (формат видео, звука и какой версией MKVmerge собран контейнер)
по сэмплам имел в виду конечно, они почти везде прилагаются и это хорошо есть в отличии от полной медиаинфо.

Поделитесь со своими друзьями в соцсетях:

WDTV Forum / Форум про WD TV Gen2 / Опыт эксплуатации / не показывает фильм 2