Неофициальный клуб пользователей HD видео плеера WD TV


»Юзер: »Пароль:   Запомнить? 
WDTV Forum / Форум про WD TV Gen2 / Опыт эксплуатации / что то странное со звуком
Написано:  07 Фев 2011 17:01
Скачал файл ави, пережал мквергом 4.0, файл содержит две дорожки АС3, прикол вот в чем: руская дорожка идет только с фоновым звуком(музыка, звуки), а дубляжа нет (тупо рот открывают), хотя на компе все в поряде идет. Попробывал другие фильмы, звук воспроизводится нормально. Кто сталкивался с такой херней, сообщите пожайлуста, как вылечить.
Написано:  07 Фев 2011 18:20
медиаинфо файла http://wdhd.ru/faq.php?q_id=21
__________________
Sharp LC-32X20RU + WDTV Gen2 + WDTV Live (если понравилось 41001352107159 яндекс)
Написано:  07 Фев 2011 18:21
а что на второй дорожке?
__________________
Где купить WD TV: Live Streaming
Написано:  08 Фев 2011 06:15
Общее
Полное имя                       : D:\Downloads\Spread.2009.HDRip.avi
Формат                           : AVI
Формат/Информация                : Audio Video Interleave
Профиль формата                  : OpenDML
Размер файла                     : 2,05 Гбайт
Продолжительность                : 1 ч. 37 м.
Общий поток                      : 3007 Кбит/сек
Программа кодирования            : VirtualDubModRus 1.5.10.2 (build 2542/release)
Библиотека кодирования           : VirtualDubMod build 2542/release

Видео
Идентификатор                    : 0
Формат                           : MPEG-4 Visual
Профиль формата                  : Advanced Simple@L5
Параметр BVOP формата            : 1
Параметр QPel формата            : Нет
Параметр GMC формата             : Без точки перехода
Параметр матрицы формата         : Default (MPEG)
Идентификатор кодека             : XVID
Идентификатор кодека/Подсказка   : XviD
Продолжительность                : 1 ч. 37 м.
Битрейт                          : 2108 Кбит/сек
Ширина                           : 720 пикс.
Высота                           : 304 пикс.
Соотношение сторон               : 2,35:1
Частота кадров                   : 23,976 кадр/сек
Цветовое пространство            : YUV
Подвыборка цветности             : 4:2:0
Битовая глубина                  : 8 бит
Тип развёртки                    : Прогрессивная
Метод сжатия                     : С потерями
Бит/(Пиксели*Кадры)              : 0.402
Размер потока                    : 1,44 Гбайт (70%)
Библиотека кодирования           : XviD 1.2.1 (UTC 2008-12-04)

Аудио #1
Идентификатор                    : 1
Формат                           : AC-3
Формат/Информация                : Audio Coding 3
Расширение режима                : CM (complete main)
Идентификатор кодека             : 2000
Продолжительность                : 1 ч. 35 м.
Вид битрейта                     : Постоянный
Битрейт                          : 448 Кбит/сек
Канал(ы)                         : 6 канала(ов)
Расположение каналов             : Front: L C R, Side: L R, LFE
Частота                          : 48,0 КГц
Битовая глубина                  : 16 бит
Метод сжатия                     : С потерями
Размер потока                    : 307 Мбайт (15%)
Выравнивание                     : Разделение по промежуткам
Продолжительность промежутка     : 42  мс. (1,02 видеокадр)
Время предзагрузки промежутка    : 500 ms

Аудио #2
Идентификатор                    : 2
Формат                           : AC-3
Формат/Информация                : Audio Coding 3
Расширение режима                : CM (complete main)
Идентификатор кодека             : 2000
Продолжительность                : 1 ч. 35 м.
Вид битрейта                     : Постоянный
Битрейт                          : 448 Кбит/сек
Канал(ы)                         : 6 канала(ов)
Расположение каналов             : Front: L C R, Side: L R, LFE
Частота                          : 48,0 КГц
Битовая глубина                  : 16 бит
Метод сжатия                     : С потерями
Размер потока                    : 307 Мбайт (15%)
Выравнивание                     : Разделение по промежуткам
Продолжительность промежутка     : 42  мс. (1,02 видеокадр)
Время предзагрузки промежутка    : 500 ms

А вторая дорожка английская
Написано:  08 Фев 2011 11:37
Цитата:
а дубляжа нет (тупо рот открывают)

хм.. а может звук отстаёт просто?
был вклеен с задержкой (delay), а при перепаковке в матрёшку значение задержки потерялось.. а зачем в матрёшку его пихал, кстати - в avi не шёл чтоли?
__________________
Где купить WD TV: Live Streaming
Написано:  08 Фев 2011 12:31
С avi  та же песня.... нет дубляжа и все.... А в матрешку я всегда автоматом все запихиваю после того как скачаю фильм, у меня тема была с рассинхроном звука так вот, только пережатки в матрешку помогли (не все правда шли с рассинхроном, но я на всякий пожарный постоянно, в матрёну все заливаю)
Написано:  08 Фев 2011 16:55
Цитата:
только пережатки в матрешку помогли
Второй способ намного удобнее...
http://wdhd.ru/board/index.php?a=vtopic&t=2378
__________________
WD TV Gen 2 (LaCie v0.3) + DWA-140 (v1.71)

Поделитесь со своими друзьями в соцсетях:

WDTV Forum / Форум про WD TV Gen2 / Опыт эксплуатации / что то странное со звуком