Неофициальный клуб пользователей HD видео плеера WD TV


»Юзер: »Пароль:   Запомнить? 
Написано:  31 Май 2009 22:42
Всем привет! Принимайте в свои ряды, вчера наконец-то приобрел

Первым делом решил как следует насладиться разными HD роликами, которые накачал с сайта Microsoft (http://www.microsoft.com/windows/windowsmedia/musicandvideo/hdvideo/contentshowcase.aspx)

Все эти ролики в формате WMV9 и они пошли без проблем, но без звука (No audio channel supported. Причем кнопка Options результатов не дала.
Я перепрошил плейер на 1.02.08, и эти файлы вообще перестали воспроизводиться! Пишет Unsupported file format и типа переконвертируйте в другой формат.

Пожалуйста, помогите новичку, ведь наверняка кто-нибудь сталкивался уже с этой проблемой. Как заставить его играть эти файлы?
Написано:  01 Июн 2009 09:08
попробуй сбросить все настройки
Написано:  01 Июн 2009 11:35
Ага, это помогло, спасибо! Но изображение идет, а звука нет. Пишет Audio Channel 1 (Unsupported)

Буду благодарен, если подскажете что сделать, чтобы звук появился
Написано:  01 Июн 2009 11:55
параметры Audio кинь (скопируй из MediaInfo)
на практике WMA2 (Windows Media Audio 9.2) в asf/wmv контейнерах воспроизводится нормально..

а вот Windows Media Audio 9.2 Advanced Profile (если не ошибаюсь, именно так он именовался) уже не шёл.. я перекодировал звук в обычный Windows Media Audio 9.2
__________________
Где купить WD TV: Live Streaming
Написано:  01 Июн 2009 12:24
Touch,

Вот параметры:

General
Complete name                    : D:\Coral.wmv
Format                           : Windows Media
File size                        : 81.9 MiB
Duration                         : 1mn 45s
Overall bit rate mode            : Constant
Overall bit rate                 : 6 513 Kbps
Maximum Overall bit rate         : 6 937 Kbps
Encoded date                     : UTC 2003-12-22 00:59:58.326

Video
ID                               : 2
Format                           : VC-1
Format profile                   : MP@HL
Codec ID                         : WMV3
Codec ID/Info                    : Windows Media Video 9
Codec ID/Hint                    : WMV3
Description of the codec         : Windows Media Video 9 - Professional
Duration                         : 1mn 45s
Bit rate mode                    : Constant
Bit rate                         : 6 500 Kbps
Width                            : 1 280 pixels
Height                           : 720 pixels
Display aspect ratio             : 16/9
Frame rate                       : 23.976 fps
Resolution                       : 24 bits
Scan type                        : Progressive
Bits/(Pixel*Frame)               : 0.294
Stream size                      : 81.6 MiB (100%)
Language                         : en-us

Audio
ID                               : 1
Format                           : WMA3
Format profile                   : M1
Codec ID                         : 162
Codec ID/Info                    : Windows Media Audio 3
Description of the codec         : Windows Media Audio 9 Professional - 384 kbps, 48 kHz, 5.1 channel 24 bit (A/V) 2-pass CBR
Duration                         : 1mn 45s
Bit rate mode                    : Constant
Bit rate                         : 384 Kbps
Channel(s)                       : 6 channels
Sampling rate                    : 48.0 KHz
Resolution                       : 24 bits
Stream size                      : 4.83 MiB (6%)
Language                         : en-us


Не играет видимо из-за того что Audio Professional?
А как его переделать в обычный Windows Media Audio 9.2?
Написано:  01 Июн 2009 13:59
да, точно!
WMV3 (Windows Media Audio 9 Professional) у меня тоже был.. не игрался! перекодировать звук - любой софтиной.. можно скачать фришный Media Encoder от майкрософта.. но проще - опять же фришной тулзой типа MediaCoder
__________________
Где купить WD TV: Live Streaming
Написано:  01 Июн 2009 17:01
Скачал и установил Mediacoder. Но не понимаю, какие там настройки выставить. Пытался уже несколько разных вариантов, но как только нажимаю Start, выскакивает ошибка No file is outputted. Не понимаю в чем дело...

Touch, подскажи пожалуйста, как это сделать? Заранее благодарен.
Написано:  01 Июн 2009 21:30
попробуй с такими настройками:
- контейнер ASF
- видео: Copy Video (галку поставить)
- аудио: Windows Media (в настройках выбрать Windows Media Audio 9.2)
__________________
Где купить WD TV: Live Streaming
Написано:  01 Июн 2009 23:05
И желательно если исходный и конечный файл будут на разных томах(например один на жестком, а другой на флэшке)
__________________
Написано:  02 Июн 2009 00:00
Точно! Спасибо!

Но я уже пробовал с этими настройками в том числе, все равно была ошибка. Но сейчас поколдовал с настройками контейнера, там можно выбирать Multiplexer. Стояло Auto select и MP4box. Я выбрал в ручной режим Enabled и MEncoder. Вот тут то все и заработало! С любыми другими кроме MEncoder - не работает.

Но кстати остался единственный вопрос: исходный файл имеет разрешение 1440х1080 но aspect ratio 16:9

ideo
ID                               : 2
Format                           : VC-1
Format profile                   : MP@HL
Codec ID                         : WMV3
Codec ID/Info                    : Windows Media Video 9
Codec ID/Hint                    : WMV3
Description of the codec         : Windows Media Video 9 - Professional
Duration                         : 1mn 25s
Bit rate mode                    : Constant
Bit rate                         : 8 000 Kbps
Width                            : 1 440 pixels
Height                           : 1 080 pixels
Display aspect ratio             : 16/9
Frame rate                       : 23.976 fps
Resolution                       : 24 bits
Scan type                        : Progressive
Bits/(Pixel*Frame)               : 0.215
Stream size                      : 81.5 MiB (96%)
Language                         : en-us

А сконвертированный файл почему-то имеет меньший битрейт и 4/3, хотя видео у меня стоит Copy.

Video
Format                           : VC-1
Codec ID                         : WMV3
Codec ID/Info                    : Windows Media Video 9
Codec ID/Hint                    : WMV3
Duration                         : 1mn 26s
Bit rate                         : 7 739 Kbps
Width                            : 1 440 pixels
Height                           : 1 080 pixels
Display aspect ratio             : 4/3
Frame rate                       : 23.976 fps
Resolution                       : 24 bits
Bits/(Pixel*Frame)               : 0.208
Stream size                      : 79.4 MiB (96%)

Из-за этого на ТВ по бокам черные полоски
Может вы еще знаете как и это вылечить?
Написано:  02 Июн 2009 00:21
Блин, уже все настройки перепробовал! Выставляет 4:3 и хоть ты тресни
Написано:  02 Июн 2009 08:12
хм.. у тебя он явно перекодирует видео (изменился профиль и битрейт)! т.е. Copy Video почему-то не работает
__________________
Где купить WD TV: Live Streaming
Написано:  02 Июн 2009 10:22
Хммм, странно... Галочку Copy Video выставляю. Причем процесс обработки занимает секунд 15. Что же делать?
Написано:  02 Июн 2009 11:32
попробуй ещё с настройками поиграться.. например - сними галку Encoder: Auto Select и выставь там WM Encoder (это Windows Media).. а Multiplexer можно попробовать вообще Disable сделать
__________________
Где купить WD TV: Live Streaming
Написано:  02 Июн 2009 13:47
Выставляю WM Encoder, процесс начинается, записи в логе:
[06-02 14:45:14] Start transcoding job for D:\Amazing_Caves.wmv
[06-02 14:45:14] Windows Media Encoder loaded
[06-02 14:45:14] Starting encoder (Windows Media Encoder)

И все. Секунды идут и ничего не происходит, хотя с любыми остальными Encoder'ами таких проблем нет
Написано:  03 Июн 2009 11:48
слушай, а фиг знает чего такое.. сейчас у себя проверил - всё кодируется, видео не трогает при этом
__________________
Где купить WD TV: Live Streaming
Написано:  03 Июн 2009 11:54
при таком раскладе - скачай тогда MS Media Encoder
там тоже всё бесплатно..
но может быть придётся на пару шагов больше сделать: вытащить звуковую дорожку, прогнать её через Encoder и снова замуксить (вытащить и вклеить дороги можно тулзой Stream Editor - вроде там она зовётся там, идёт в комплекте)

скачать тут:
http://www.microsoft.com/windows/windowsmedia/forpros/encoder/default.mspx
(всё бесплатно, но нужна валидная винда)

или тут:
http://www.free-codecs.com/download/Windows_Media_Encoder_9_Series.htm
(зеркало)
__________________
Где купить WD TV: Live Streaming
Написано:  03 Июн 2009 18:14
Touch, спасибо тебе огромное!

С MS Media Encoder все заработало так как ты и написал! Ура!!!!
Написано:  03 Июн 2009 19:53
гуд
__________________
Где купить WD TV: Live Streaming
Написано:  07 Июл 2009 17:01
Скачал Media Encoder но как в нем работать не разобрался, все на английском. Кто знает - подскажите пожалуйста как перекодировать звук этой программой.

Поделитесь со своими друзьями в соцсетях: