Неофициальный клуб пользователей HD видео плеера WD TV


»Юзер: »Пароль:   Запомнить? 
WDTV Forum / Форум про WD TV Gen2 / Опыт эксплуатации / Рассинхронизация звука в матрешке
Написано:  27 Ноя 2010 10:48
Доброго всем времени суток! Скачал фильм упакованный в mkvmerge v4.2.0. На ноутбуке все идет прекрасно, пересобрал его в mkvmerge v3.4.0 для WD (в последнее время приходится это делать все чаще из-за новых релизов) на РС - опять же все ОК. При воспроизведении на WD очевидна рассинхронизация видео и аудио, причем аудио опережает на несколько секунд видео, а потом звук идет волной (то пропадает, то появляется), по качеству картинки никаких претензий нет. Аппарат - WD2, проша последняя официальная.

General
Complete name                    : G:\Художественные фильмы\HDRip\New\Уолл Стрит - Деньги не спят (Wall Street - Money Never Sleeps) 2010 HD.mkv
Format                           : Matroska
File size                        : 7.23 GiB
Duration                         : 2h 12mn
Overall bit rate                 : 7 785 Kbps
Encoded date                     : UTC 2010-11-24 22:14:06
Writing application              : mkvmerge v3.4.0 ('Rapunzel' сборка от May 15 2010 09:38:20
Writing library                  : libebml v0.8.0 + libmatroska v0.9.0

Video
ID                               : 1
Format                           : AVC
Format/Info                      : Advanced Video Codec
Format profile                   : High@L4.1
Format settings, CABAC           : Yes
Format settings, ReFrames        : 11 frames
Codec ID                         : V_MPEG4/ISO/AVC
Duration                         : 2h 12mn
Bit rate                         : 5 553 Kbps
Width                            : 1 280 pixels
Height                           : 544 pixels
Display aspect ratio             : 2.35:1
Frame rate                       : 23.976 fps
Color space                      : YUV
Chroma subsampling               : 4:2:0
Bit depth                        : 8 bits
Scan type                        : Progressive
Bits/(Pixel*Frame)               : 0.333
Stream size                      : 4.98 GiB (69%)
Writing library                  : x264 core 98 r1649 20cbe10
Encoding settings                : cabac=1 / ref=11 / deblock=1:-3:-3 / analyse=0x3:0x113 / me=umh / subme=10 / psy=1 / psy_rd=1.00:0.00 / mixed_ref=1 / me_range=64 / chroma_me=1 / trellis=2 / 8x8dct=1 / cqm=0 / deadzone=21,11 / fast_pskip=0 / chroma_qp_offset=-2 / threads=9 / sliced_threads=0 / nr=0 / decimate=0 / interlaced=0 / constrained_intra=0 / bframes=8 / b_pyramid=2 / b_adapt=2 / b_bias=0 / direct=3 / weightb=1 / weightp=2 / keyint=250 / keyint_min=25 / scenecut=40 / intra_refresh=0 / rc_lookahead=50 / rc=2pass / mbtree=1 / bitrate=5553 / ratetol=1.0 / qcomp=0.60 / qpmin=10 / qpmax=51 / qpstep=4 / cplxblur=20.0 / qblur=0.5 / vbv_maxrate=50000 / vbv_bufsize=50000 / ip_ratio=1.40 / aq=1:0.90 / nal_hrd=none
Language                         : English

Audio #1
ID                               : 2
Format                           : DTS
Format/Info                      : Digital Theater Systems
Codec ID                         : A_DTS
Duration                         : 2h 12mn
Bit rate mode                    : Constant
Bit rate                         : 755 Kbps
Channel(s)                       : 6 channels
Channel positions                : Front: L C R, Side: L R, LFE
Sampling rate                    : 48.0 KHz
Bit depth                        : 24 bits
Stream size                      : 718 MiB (10%)
Title                            : DTS 5.1 @ 768 kbps - Дублированный, R5
Language                         : Russian

Audio #2
ID                               : 3
Format                           : DTS
Format/Info                      : Digital Theater Systems
Codec ID                         : A_DTS
Duration                         : 2h 12mn
Bit rate mode                    : Constant
Bit rate                         : 1 510 Kbps
Channel(s)                       : 6 channels
Channel positions                : Front: L C R, Side: L R, LFE
Sampling rate                    : 48.0 KHz
Bit depth                        : 24 bits
Stream size                      : 1.40 GiB (19%)
Title                            : DTS 5.1 @ 1536 kbps - Оригинал
Language                         : English

Text #1
ID                               : 4
Format                           : UTF-8
Codec ID                         : S_TEXT/UTF8
Codec ID/Info                    : UTF-8 Plain Text
Language                         : Russian

Text #2
ID                               : 5
Format                           : UTF-8
Codec ID                         : S_TEXT/UTF8
Codec ID/Info                    : UTF-8 Plain Text
Title                            : SDH
Language                         : English

Помогите, плиз, разобраться!
Написано:  27 Ноя 2010 10:58
Плейер подключен к домашнему кинотеатру (5.1) по оптике (т.е. с воспроизведением DTS-звука проблем еще не было) в настройках аудио на WD всегда - цифра. Видео через HDMI.
Написано:  28 Ноя 2010 17:53
Все, ответа не дождался и разобрался сам. Битрэйт DTS в 755 Kbps ему не понравился. Перекодировал в АС3 со стандартным битрэйтом 448 Kbps. Потом пересобрал контейнер только со своей дорогой и 25FPS на видео. Вуаля, все работает.

Поделитесь со своими друзьями в соцсетях:

WDTV Forum / Форум про WD TV Gen2 / Опыт эксплуатации / Рассинхронизация звука в матрешке