Неофициальный клуб пользователей HD видео плеера WD TV


»Юзер: »Пароль:   Запомнить? 
Написано:  17 Ноя 2010 18:01
WD TV Live прошивка 1.03.49_V
не читает это файл:  http://narod.ru/disk/27611552000/Bjork%20-%20Wanderlust%203d.mov.html

? а должен,или нет ?


G:\Ñêà÷êà\Bjork - Wanderlust 3d.mov
   General
      Complete name : G:\Ñêà÷êà\Bjork - Wanderlust 3d.mov
      Format : MPEG-4
      Format profile : QuickTime
      Codec ID : qt 
      File size : 188 MiB
      Duration : 7mn 45s
      Overall bit rate : 3 393 Kbps
      Encoded date : UTC 2008-04-18 01:41:40
      Tagged date : UTC 2008-04-18 01:42:11
      Writing library : Apple QuickTime
   Video #2
      ID : 2
      Format : M-JPEG 2000
      Codec ID : mjp2
      Duration : 7mn 45s
      Bit rate mode : Variable
      Bit rate : 3 262 Kbps
      Width : 600 pixels
      Height : 338 pixels
      Display aspect ratio : 16:9
      Frame rate mode : Constant
      Frame rate : 11.988 fps
      Bits/(Pixel*Frame) : 1.342
      Stream size : 181 MiB (96%)
      Encoded date : UTC 2008-04-18 01:01:22
      Tagged date : UTC 2008-04-18 01:42:11
   Audio #1
      ID : 1
      Format : AAC
      Format/Info : Advanced Audio Codec
      Format version : Version 4
      Format profile : LC
      Format settings, SBR : No
      Codec ID : 40
      Duration : 7mn 45s
      Bit rate mode : Constant
      Bit rate : 128 Kbps
      Channel(s) : 2 channels
      Channel positions : L R
      Sampling rate : 44.1 KHz
      Resolution : 16 bits
      Stream size : 7.10 MiB (4%)
      Encoded date : UTC 2008-04-18 01:01:22
      Tagged date : UTC 2008-04-18 01:42:11

подскажите ПЛЗ

Поделитесь со своими друзьями в соцсетях: