Неофициальный клуб пользователей HD видео плеера WD TV


»Юзер: »Пароль:   Запомнить? 
Написано:  11 Ноя 2010 16:43
WD TV live прошивка 1.02.21 Не читает MKV фильм
Общее
Полное имя                       : F:\Железный человек 2 1080.mkv
Формат                           : Matroska
Размер файла                     : 12,9 ГиБ
Продолжительность                : 2 ч. 4 м.
Общий поток                      : 14,8 Мбит/сек
Дата кодирования                 : UTC 2010-09-10 07:42:59
Программа кодирования            : mkvmerge v3.0.0 ('Hang up your Hang-Ups') built on Dec 12 2009 15:20:35
Библиотека кодирования           : libebml v0.7.9 + libmatroska v0.8.1
Обложка                          : Yes

Видео
Идентификатор                    : 1
Формат                           : AVC
Формат/Информация                : Advanced Video Codec
Профайл формата                  : High@L4.1
Параметры CABAC формата          : Да
Параметры ReFrames формата       : 5 кадры
Идентификатор кодека             : V_MPEG4/ISO/AVC
Продолжительность                : 2 ч. 4 м.
Битрейт                          : 12,4 Мбит/сек
Ширина                           : 1920 пикс.
Высота                           : 816 пикс.
Соотношение кадра                : 2,35:1
Частота кадров                   : 23,976 кадр/сек
ColorSpace                       : YUV
ChromaSubsampling                : 4:2:0
BitDepth/String                  : 8 бит
Тип развёртки                    : Прогрессивная
Бит/(Пиксели*Кадры)              : 0.330
Размер потока                    : 10,6 ГиБ (82%)
Заголовок                        : vs_U 2010 rls stmb
Библиотека кодирования           : x264 core 104 r1703 cd21d05
Настройки программы              : cabac=1 / ref=5 / deblock=1:-3:-3 / analyse=0x3:0x113 / me=umh / subme=9 / psy=1 / psy_rd=1.00:0.00 / mixed_ref=1 / me_range=32 / chroma_me=1 / trellis=2 / 8x8dct=1 / cqm=0 / deadzone=21,11 / fast_pskip=0 / chroma_qp_offset=-4 / threads=12 / sliced_threads=0 / nr=0 / decimate=0 / interlaced=0 / constrained_intra=0 / bframes=5 / b_pyramid=2 / b_adapt=2 / b_bias=0 / direct=3 / weightb=1 / open_gop=0 / weightp=2 / keyint=250 / keyint_min=23 / scenecut=40 / intra_refresh=0 / rc=2pass / mbtree=0 / bitrate=12410 / ratetol=1.0 / qcomp=0.60 / qpmin=10 / qpmax=51 / qpstep=4 / cplxblur=20.0 / qblur=0.5 / ip_ratio=1.40 / pb_ratio=1.30 / aq=1:0.90
Язык                             : English

Аудио #1
Идентификатор                    : 2
Формат                           : AC-3
Формат/Информация                : Audio Coding 3
Format_Settings_ModeExtension    : CM (complete main)
Идентификатор кодека             : A_AC3
Продолжительность                : 2 ч. 4 м.
Вид битрейта                     : Постоянный
Битрейт                          : 640 Кбит/сек
Канал(ы)                         : 6 канала(ов)
Расположение каналов             : Front: L C R, Side: L R, LFE
Частота                          : 48,0 КГц
BitDepth/String                  : 16 бит
Размер потока                    : 571 МиБ (4%)
Заголовок                        : AC3 6ch 640 kbps Dubbed CEE
Язык                             : Russian

Аудио #2
Идентификатор                    : 3
Формат                           : DTS
Формат/Информация                : Digital Theater Systems
Идентификатор кодека             : A_DTS
Продолжительность                : 2 ч. 4 м.
Вид битрейта                     : Постоянный
Битрейт                          : 1510 Кбит/сек
Канал(ы)                         : 6 канала(ов)
Расположение каналов             : Front: L C R, Side: L R, LFE
Частота                          : 48,0 КГц
BitDepth/String                  : 24 бит
Размер потока                    : 1,31 ГиБ (10%)
Заголовок                        : DTS 6ch 1536 kbps
Язык                             : English

Аудио #3
Идентификатор                    : 4
Формат                           : AC-3
Формат/Информация                : Audio Coding 3
Format_Settings_ModeExtension    : CM (complete main)
Идентификатор кодека             : A_AC3
Продолжительность                : 2 ч. 4 м.
Вид битрейта                     : Постоянный
Битрейт                          : 224 Кбит/сек
Канал(ы)                         : 2 канала(ов)
Расположение каналов             : Front: L R
Частота                          : 48,0 КГц
BitDepth/String                  : 16 бит
Размер потока                    : 200 МиБ (2%)
Заголовок                        : AC3 2ch 224 kbps commentary
Язык                             : English

Текст #1
Идентификатор                    : 5
Формат                           : UTF-8
Идентификатор кодека             : S_TEXT/UTF8
Идентификатор кодека/Информация  : UTF-8 Plain Text
Заголовок                        : English
Язык                             : English

Текст #2
Идентификатор                    : 6
Формат                           : UTF-8
Идентификатор кодека             : S_TEXT/UTF8
Идентификатор кодека/Информация  : UTF-8 Plain Text
Заголовок                        : English Commentary
Язык                             : English

Меню
00:00:00.000                     : en:00:00:00.000
00:05:04.304                     : en:00:05:04.304
00:11:07.584                     : en:00:11:07.584
00:17:59.954                     : en:00:17:59.954
00:25:53.010                     : en:00:25:53.010
00:30:26.783                     : en:00:30:26.783
00:37:33.001                     : en:00:37:33.001
00:43:59.637                     : en:00:43:59.637
00:51:39.346                     : en:00:51:39.346
01:00:10.523                     : en:01:00:10.523
01:07:01.517                     : en:01:07:01.517
01:16:00.764                     : en:01:16:00.764
01:21:13.285                     : en:01:21:13.285
01:30:33.553                     : en:01:30:33.553
01:38:49.340                     : en:01:38:49.340
01:45:41.794                     : en:01:45:41.794
01:54:17.350                     : en:01:54:17.350
Написано:  11 Ноя 2010 16:49
пробывали вначале название на английском добавить
__________________
Sharp LC-32X20RU + WDTV Gen2 + WDTV Live (если понравилось 41001352107159 яндекс)
Написано:  11 Ноя 2010 20:08
Да,дружище!Оказалось всё так просто.А я че только ни делал.И расширение переименовывыл,и перекодировал.Так что тысячи благодарностей,всё работает.
Написано:  09 Янв 2011 19:13
Привет, Всем!
Помогите, если возможно. На WDTV GEN1 последняя официальная прошивка не идут два фильма .mkv,

первый:

Общее
UniqueID/String                  : 237468105460024819075259244328629474080 (0xB2A6B18A26264E3B932164E5622A9320)
Полное имя                       : D:\TORRENT\downloads\Aliens.1986.Special.Edition.mkv
Формат                           : Matroska
Размер файла                     : 29,5 Гбайт
Продолжительность                : 2 ч. 34 м.
Общий поток                      : 27,4 Мбит/сек
Дата кодирования                 : UTC 2010-11-14 15:57:16
Программа кодирования            : mkvmerge v4.4.0 ('Die Wiederkehr') сборка от Oct 31 2010 21:52:48
Библиотека кодирования           : libebml v1.0.0 + libmatroska v1.0.0

Видео
Идентификатор                    : 1
Формат                           : AVC
Формат/Информация                : Advanced Video Codec
Профиль формата                  : High@L4.1
Параметр CABAC формата           : Да
Параметр ReFrames формата        : 4 кадры
Параметры GOP формата            : M=1, N=24
Режим смешивания                 : Header stripping
Идентификатор кодека             : V_MPEG4/ISO/AVC
Продолжительность                : 2 ч. 34 м.
Вид битрейта                     : Переменный
Битрейт                          : 26,1 Мбит/сек
Максимальный битрейт             : 36,6 Мбит/сек
Ширина                           : 1920 пикс.
Высота                           : 1080 пикс.
Соотношение сторон               : 16:9
Частота кадров                   : 23,976 кадр/сек
Цветовое пространство            : YUV
Подвыборка цветности             : 4:2:0
Битовая глубина                  : 8 бит
Тип развёртки                    : Прогрессивная
Бит/(Пиксели*Кадры)              : 0.525
Размер потока                    : 28,1 Гбайт (95%)
Основные цвета                   : BT.709-5, BT.1361, IEC 61966-2-4, SMPTE RP177
Характеристики трансфера         : BT.709-5, BT.1361
Коэффициенты матрицы             : BT.709-5, BT.1361, IEC 61966-2-4 709, SMPTE RP177

Аудио
Идентификатор                    : 2
Формат                           : DTS
Формат/Информация                : Digital Theater Systems
Режим смешивания                 : Header stripping
Идентификатор кодека             : A_DTS
Продолжительность                : 2 ч. 34 м.
Вид битрейта                     : Постоянный
Битрейт                          : 755 Кбит/сек
Канал(ы)                         : 6 канала(ов)
Расположение каналов             : Front: L C R, Side: L R, LFE
Частота                          : 48,0 КГц
Битовая глубина                  : 24 бит
Метод сжатия                     : С потерями
Размер потока                    : 834 Мбайт (3%)
Заголовок                        : Дубляж
Язык                             : Russian
------------------------------------------
и второй:

Общее
UniqueID/String                  : 237468105460024819075259244328629474080 (0xB2A6B18A26264E3B932164E5622A9320)
Полное имя                       : D:\TORRENT\downloads\Aliens.1986.Special.Edition.mkv
Формат                           : Matroska
Размер файла                     : 29,5 Гбайт
Продолжительность                : 2 ч. 34 м.
Общий поток                      : 27,4 Мбит/сек
Дата кодирования                 : UTC 2010-11-14 15:57:16
Программа кодирования            : mkvmerge v4.4.0 ('Die Wiederkehr') сборка от Oct 31 2010 21:52:48
Библиотека кодирования           : libebml v1.0.0 + libmatroska v1.0.0

Видео
Идентификатор                    : 1
Формат                           : AVC
Формат/Информация                : Advanced Video Codec
Профиль формата                  : High@L4.1
Параметр CABAC формата           : Да
Параметр ReFrames формата        : 4 кадры
Параметры GOP формата            : M=1, N=24
Режим смешивания                 : Header stripping
Идентификатор кодека             : V_MPEG4/ISO/AVC
Продолжительность                : 2 ч. 34 м.
Вид битрейта                     : Переменный
Битрейт                          : 26,1 Мбит/сек
Максимальный битрейт             : 36,6 Мбит/сек
Ширина                           : 1920 пикс.
Высота                           : 1080 пикс.
Соотношение сторон               : 16:9
Частота кадров                   : 23,976 кадр/сек
Цветовое пространство            : YUV
Подвыборка цветности             : 4:2:0
Битовая глубина                  : 8 бит
Тип развёртки                    : Прогрессивная
Бит/(Пиксели*Кадры)              : 0.525
Размер потока                    : 28,1 Гбайт (95%)
Основные цвета                   : BT.709-5, BT.1361, IEC 61966-2-4, SMPTE RP177
Характеристики трансфера         : BT.709-5, BT.1361
Коэффициенты матрицы             : BT.709-5, BT.1361, IEC 61966-2-4 709, SMPTE RP177

Аудио
Идентификатор                    : 2
Формат                           : DTS
Формат/Информация                : Digital Theater Systems
Режим смешивания                 : Header stripping
Идентификатор кодека             : A_DTS
Продолжительность                : 2 ч. 34 м.
Вид битрейта                     : Постоянный
Битрейт                          : 755 Кбит/сек
Канал(ы)                         : 6 канала(ов)
Расположение каналов             : Front: L C R, Side: L R, LFE
Частота                          : 48,0 КГц
Битовая глубина                  : 24 бит
Метод сжатия                     : С потерями
Размер потока                    : 834 Мбайт (3%)
Заголовок                        : Дубляж
Язык                             : Russian
------------------------------------------
P.S.: К сожалению не силён  в форматах, переименование имён файлов в .MP4 нечего не дало, результат - проигрыватель отправляет к инструкции на WDTW...
Написано:  09 Янв 2011 19:26
также читаем фак http://wdhd.ru/faq.php?q_id=13
__________________
Sharp LC-32X20RU + WDTV Gen2 + WDTV Live (если понравилось 41001352107159 яндекс)
Написано:  09 Янв 2011 19:39
Цитата:


Спасибо, попробую разобраться, результат сообщу...
Написано:  12 Янв 2011 16:08
Перекомпоновал фильмы с помощью MKVmerge ver4.0.0 и всё заработало!!! ALUKARD cпасибо за помощь. Всем удачи.

Есть ли возможность так же перекомпоновывать фильмы BD (при закачке с торрента раскладываются на много вложенных папок, а не на один файл) с целью уменьшения объёма фильма путём сокращения не нужных мне звуковых/видео потоков???

P.S.: в FAQ не работает ссылка [url=null]http://coreforge.org/frs/?group_id=33&release_id=17

[/url] на закачку MKVextraktGUI.exe
Себе, до кучи, скачал где-то на торрентах через поисковики
Написано:  12 Янв 2011 16:18
да можно,просто снять галочки напротив не нужного( с полными образами тогда лучше пользоваться TSmuxer )
__________________
Sharp LC-32X20RU + WDTV Gen2 + WDTV Live (если понравилось 41001352107159 яндекс)
Написано:  17 Фев 2014 23:17   Отредактировано: aleks2016
Народ, а как вывести это сообщение с описанием файла, библиотек и пр.?
Упорно не читается Avatar.mkv
Написано:  18 Фев 2014 10:38
Цитата:
Народ, а как вывести это сообщение с описанием файла, библиотек и пр?

с помощью программки mediainfo
__________________
Где купить WD TV: Live Streaming

Поделитесь со своими друзьями в соцсетях: