Неофициальный клуб пользователей HD видео плеера WD TV


»Юзер: »Пароль:   Запомнить? 
Написано:  21 Май 2009 01:51
Титаник / Titanic / 1997 / remux

статус идёт без глюков

на http://hdtracker.ru/details.php?id=2192 лежит DTS дорога отдельным файлом - приклеил tsmuxer'ом рассинхрона нет всё ок.



Описание    Молодые влюбленные Джек и Роза находят друг друга в первом и последнем плавании «непотопляемого» Титаника. Они не могли знать, что шикарный лайнер столкнется с айсбергом в холодных водах Северной Атлантики, и их страстная любовь превратится в схватку со смертью...

Год    2007
Страна    США
Жанр    Мелодрама
Продолжительность    03:06:49
Перевод    Дубляж
Режиссер    Джеймс Кэмерон /James Cameron/
В ролях    Билл Пэкстон /Bill Paxton/, Кейт Уинслет /Kate Winslet/, Леонардо ДиКаприо /Leonardo DiCaprio/, Сьюзи Эймис /Suzy Amis/, Дэвид Уорнер /David Warner/, Билли Зэйн /Billy Zane/, Фрэнсис Фишер /Frances Fisher/, Кэти Бэйтс /Kathy Bates/
Качество    HDTV
Видео    1920x1088, x264, 25 fps, ~ 17880 kbps
Аудио    Русский DD 5.1 - 448 kb/s; Английский DD 5.1 - 384 kb/s
Субтитры   
Контейнер    TS
Редактирован    2008-07-01 10:13:14
Тип    HDTV
Размер    25.07 GB (26,923,723,272 байт)

mediainfo:

General
ID                               : 1
Complete name                    : N:\hd films\Titanic.1997.H.264.HDTV_new.ts
Format                           : MPEG-TS
File size                        : 26.2 GiB
Duration                         : 3h 6mn
Overall bit rate                 : 20.1 Mbps
Maximum Overall bit rate         : 35.5 Mbps

Video
ID                               : 4113 (0x1011)
Menu ID                          : 1 (0x1)
Format                           : AVC
Format/Info                      : Advanced Video Codec
Format profile                   : Main@L4.0
Format settings, CABAC           : Yes
Format settings, ReFrames        : 2 frames
Duration                         : 3h 6mn
Bit rate                         : 17.1 Mbps
Width                            : 1 920 pixels
Height                           : 1 088 pixels
Display aspect ratio             : 16/9
Frame rate                       : 25.000 fps
Resolution                       : 24 bits
Colorimetry                      : 4:2:0
Scan type                        : Progressive
Bits/(Pixel*Frame)               : 0.327
Stream size                      : 22.3 GiB (85%)

Audio #1
ID                               : 4352 (0x1100)
Menu ID                          : 1 (0x1)
Format                           : AC-3
Format/Info                      : Audio Coding 3
Duration                         : 3h 6mn
Bit rate mode                    : Constant
Bit rate                         : 448 Kbps
Channel(s)                       : 6 channels
Channel positions                : Front: L C R, Surround: L R, LFE
Sampling rate                    : 48.0 KHz
Video delay                      : 27ms
Stream size                      : 599 MiB (2%)
Language                         : Russian

Audio #2
ID                               : 4353 (0x1101)
Menu ID                          : 1 (0x1)
Format                           : AC-3
Format/Info                      : Audio Coding 3
Duration                         : 3h 6mn
Bit rate mode                    : Constant
Bit rate                         : 384 Kbps
Channel(s)                       : 6 channels
Channel positions                : Front: L C R, Surround: L R, LFE
Sampling rate                    : 48.0 KHz
Video delay                      : 27ms
Stream size                      : 513 MiB (2%)
Language                         : English

Audio #3
ID                               : 4354 (0x1102)
Menu ID                          : 1 (0x1)
Format                           : DTS
Format/Info                      : Digital Theater Systems
Duration                         : 3h 6mn
Bit rate mode                    : Constant
Bit rate                         : 755 Kbps
Channel(s)                       : 6 channels
Channel positions                : Front: L C R, Surround: L R, LFE
Sampling rate                    : 48.0 KHz
Resolution                       : 24 bits
Stream size                      : 1 008 MiB (4%)
Language                         : Russian

http://hdtracker.ru/details.php?id=2192  серебро
http://kinozal.tv/details.php?id=132737  золото
__________________
REMUX FOREVER

Watching HD on: LCD Sharp 46XL2E, Yamaha RX-V563, Yamaha NS-777, Yamaha NS-333, Yamaha NS-444, Yamaha YST-SW215, WD TV, My Book EE 1 TB (3), HP SE 1.5 ТБ (1)|| DVD watching on: Yamaha DVD-S663|| DVD-Audio, SACD: Onkyo DV-SP504E
Написано:  21 Май 2009 09:01
Какой к черту Remux??? Он не выходил на HDDVD и еще не вышел на Blu-ray. Это рип со спутника.
Написано:  22 Май 2009 00:57
оооо рип со спутника по какому это каналу нынче опказывают в таком качестве фильмы просвети:

Bit rate                         : 17.1 Mbps
Width                            : 1 920 pixels
Height                           : 1 088 pixels
__________________
REMUX FOREVER

Watching HD on: LCD Sharp 46XL2E, Yamaha RX-V563, Yamaha NS-777, Yamaha NS-333, Yamaha NS-444, Yamaha YST-SW215, WD TV, My Book EE 1 TB (3), HP SE 1.5 ТБ (1)|| DVD watching on: Yamaha DVD-S663|| DVD-Audio, SACD: Onkyo DV-SP504E
Написано:  22 Май 2009 08:00
сёрчер, а ведь regurus прав
не было титаника на блюрее пока.. щас погуглил - ожидается только (и фиг знает когда именно)

на амазоне можно только записаться в лист рассылки
http://www.amazon.com/Titanic-Blu-ray/dp/B000NQRE1E
__________________
Где купить WD TV: Live Streaming
Написано:  22 Май 2009 11:03
не всё хорошо я тоже пост видел на трекере что это не не ремукс, но всё таки где где можно было взять видео с таким битрейтом и разрешением, по спутнику врядли - даже если по спутнику поверить в данную теорию - то с какого носителя запускали фильм стоит задуматься - качество фильма реально не DVD ное проверял и далеко не со спутника - у меня дома 4 тарелки и ни один канал в таком качестве не идёт.
__________________
REMUX FOREVER

Watching HD on: LCD Sharp 46XL2E, Yamaha RX-V563, Yamaha NS-777, Yamaha NS-333, Yamaha NS-444, Yamaha YST-SW215, WD TV, My Book EE 1 TB (3), HP SE 1.5 ТБ (1)|| DVD watching on: Yamaha DVD-S663|| DVD-Audio, SACD: Onkyo DV-SP504E
Написано:  22 Май 2009 11:25   Отредактировано: touch
а фиг знает!
может d-theatre издание какое-нибудь было?
__________________
Где купить WD TV: Live Streaming
Написано:  31 Июл 2009 11:01
апконверт....
Написано:  31 Июл 2009 13:50
Цитата:
апконверт....


__________________
TV Panasonic R42PY85,WDTV-1,WD My Book 1Tb,HDD Lacie 320Gb,Power Console Pure AV PF50,DVD-Video Denon DVD-2800,DVD-Audio Marantz DV6500,CD Audio Innovations Alto,H\A D10 Cobra,A\V Technics SA-DA8,Audio Pro Cinema 5.1,XBOX 360 Elite.
Написано:  31 Июл 2009 15:50
я вот думаю.. а не могут ли крупные спутниковые каналы сами оцифровку делать? прямо с плёнки, только для своего эфира? по кинотеатрам же расходятся плёночные копии.. видимо дело только в договорённости с дистрибьютором фильма, чтобы взять и оцифровать его в hd
__________________
Где купить WD TV: Live Streaming
Написано:  31 Июл 2009 20:19   Отредактировано: NetSearcher
апконверт, смотря что под этим подразумевается...

не похоже на спутниковое качество:

Bit rate                         : 17.1 Mbps
Width                            : 1 920 pixels
Height                           : 1 088 pixels
__________________
REMUX FOREVER

Watching HD on: LCD Sharp 46XL2E, Yamaha RX-V563, Yamaha NS-777, Yamaha NS-333, Yamaha NS-444, Yamaha YST-SW215, WD TV, My Book EE 1 TB (3), HP SE 1.5 ТБ (1)|| DVD watching on: Yamaha DVD-S663|| DVD-Audio, SACD: Onkyo DV-SP504E
Написано:  31 Июл 2009 22:44
1088 pixels - уже говорит, что какой-то голяк. 17.1 Mbps - как раз битрейт для апскейла. На ДВД хорошего качества бывает и по 9 мбит.
Скорее всего запись с HD пленочной кассеты высокого качества. Все-равно бугага.

Поделитесь со своими друзьями в соцсетях: