Неофициальный клуб пользователей HD видео плеера WD TV


»Юзер: »Пароль:   Запомнить? 
WDTV Forum / Форум про HD фильмы / Эти фильмы играются / Я - легенда / I Am Legend (2007) remux
Написано:  21 Май 2009 01:41
Я - легенда / I Am Legend (2007) remux

Статус идёт без глюков



Описание    Роберт Невилл - ученый, единственный неуязвимый перед лицом жуткого вируса: необратимого, неизлечимого... и созданного человеческим умом. Его oкружают "Инфицированные" - жертвы эпидемии, превратившиеся в плотоядных мутантов, способных существовать только в темноте, поглощающих и заражающих все и всех на своем пути. Инфицированные наблюдают за каждым движением главного героя, выжидая, когда же он все-таки совершит роковую ошибку, и они смогут завладеть его кровью.

Год    2007
Страна    США, Warner Bros. Pictures / Village Roadshow Pictures
Жанр    Драма / Ужасы / Фантастика
Продолжительность    1.40:37
Перевод    (Полное Дублирование), Многоголосый
Режиссер    Фрэнсис Лоуренс
В ролях    Уилл Смит, Элис Брага, Чарли Тахан, Салли Ричардсон, Даррелл Фостер, Эприл Грейс, Дэш Михок
Качество    BD
Видео    1920x1080p, VC-1, 23.976 fps, 2.35:1
Аудио    Русский DD 5.1 448 kbps, Русский(Петр Гланц и Инна Королева) DTS 5.1 1536 kbps, Английский DTS 5.1 1536 kbps
Субтитры   
Контейнер    Not Set
Редактирован    2008-04-14 19:33:18
IMDB    Перейти
Тема на форуме    Перейти
Тип    HD DVD/BD Remux
Размер    14.65 GB (15,729,713,540 байт)

mediainfo:

General
ID                               : 0
Complete name                    : N:\hd films\I.Am.Legend\BDMV\STREAM\00000.m2ts
Format                           : BDAV
Format/Info                      : BluRay Video
File size                        : 14.6 GiB
Duration                         : 1h 40mn
Overall bit rate                 : 20.9 Mbps
Maximum Overall bit rate         : 48.0 Mbps

Video
ID                               : 4113 (0x1011)
Menu ID                          : 1 (0x1)
Format                           : VC-1
Format profile                   : AP@L3
Duration                         : 1h 40mn
Bit rate                         : 16.5 Mbps
Width                            : 1 920 pixels
Height                           : 1 080 pixels
Display aspect ratio             : 16/9
Frame rate                       : 23.976 fps
Colorimetry                      : 4:2:0
Scan type                        : Progressive
Bits/(Pixel*Frame)               : 0.333
Stream size                      : 11.6 GiB (79%)

Audio #1
ID                               : 4352 (0x1100)
Menu ID                          : 1 (0x1)
Format                           : AC-3
Format/Info                      : Audio Coding 3
Duration                         : 1h 40mn
Bit rate mode                    : Constant
Bit rate                         : 448 Kbps
Channel(s)                       : 6 channels
Channel positions                : Front: L C R, Surround: L R, LFE
Sampling rate                    : 48.0 KHz
Stream size                      : 322 MiB (2%)

Audio #2
ID                               : 4353 (0x1101)
Menu ID                          : 1 (0x1)
Format                           : DTS
Format/Info                      : Digital Theater Systems
Duration                         : 1h 40mn
Bit rate mode                    : Constant
Bit rate                         : 1 510 Kbps
Channel(s)                       : 6 channels
Channel positions                : Front: L C R, Surround: L R, LFE
Sampling rate                    : 48.0 KHz
Resolution                       : 24 bits
Stream size                      : 1.06 GiB (7%)

Audio #3
ID                               : 4354 (0x1102)
Menu ID                          : 1 (0x1)
Format                           : DTS
Format/Info                      : Digital Theater Systems
Duration                         : 1h 40mn
Bit rate mode                    : Constant
Bit rate                         : 1 510 Kbps
Channel(s)                       : 6 channels
Channel positions                : Front: L C R, Surround: L R, LFE
Sampling rate                    : 48.0 KHz
Resolution                       : 24 bits
Stream size                      : 1.06 GiB (7%)

http://hdtracker.ru/details.php?id=1781  gold раздача
__________________
REMUX FOREVER

Watching HD on: LCD Sharp 46XL2E, Yamaha RX-V563, Yamaha NS-777, Yamaha NS-333, Yamaha NS-444, Yamaha YST-SW215, WD TV, My Book EE 1 TB (3), HP SE 1.5 ТБ (1)|| DVD watching on: Yamaha DVD-S663|| DVD-Audio, SACD: Onkyo DV-SP504E
Написано:  21 Май 2009 08:14
ПОдтверждаю работоспособность
__________________
HD смотрю на:
Sharp Atlas LC42SB55RU 42" FullHD + APC Back-UPS ES550
WD HD Media Player + HDD LaCie F.A.Porsche 500 GB

Знаю где что скачать
Написано:  21 Май 2009 09:00
У меня тоже без глюков!
Написано:  21 Май 2009 09:56
спасибо.. добавлю скоро ремуксов
__________________
Где купить WD TV: Live Streaming
Написано:  03 Июн 2009 00:01
touch, а touch добавь те ремуксы которые я постил или расшарь доступ я время от времени буду добавлять.
__________________
REMUX FOREVER

Watching HD on: LCD Sharp 46XL2E, Yamaha RX-V563, Yamaha NS-777, Yamaha NS-333, Yamaha NS-444, Yamaha YST-SW215, WD TV, My Book EE 1 TB (3), HP SE 1.5 ТБ (1)|| DVD watching on: Yamaha DVD-S663|| DVD-Audio, SACD: Onkyo DV-SP504E
Написано:  03 Июн 2009 11:57
сегодня сделаю!
с доступом тоже вариант, кстати - я подумаю, как сделать это попроще
__________________
Где купить WD TV: Live Streaming

Поделитесь со своими друзьями в соцсетях:

WDTV Forum / Форум про HD фильмы / Эти фильмы играются / Я - легенда / I Am Legend (2007) remux