Неофициальный клуб пользователей HD видео плеера WD TV


»Юзер: »Пароль:   Запомнить? 
WDTV Forum / Форум про HD фильмы / Эти фильмы играются / Джеймс Бонд 007: Квант милосердия / James Bond 007: Quantum of Solace (2008
Написано:  21 Май 2009 01:36   Отредактировано: NetSearcher
Джеймс Бонд 007: Квант милосердия / James Bond 007: Quantum of Solace ( 2008 ) Blu-ray Remux

Статус идёт без глюков.



Информация о фильме
Название: Джеймс Бонд 007: Квант милосердия
Оригинальное название: James Bond 007: Quantum of Solace
Год выхода: 2008
Жанр: боевик, триллер, приключения
Режисcер: Марк Форстер
В ролях: Дэниэл Крэйг, Ольга Куриленко, Матье Амальрик, Джуди Денч, Джанкарло Джаннини, Джемма Артертон, Джеффри Райт, Дэвид Харбор, Джеспер Кристенсен, Анатоль Таубман.

О фильме:
После предательства Веспер, агент 007 борется с желанием превратить последнее задание в личную вендетту. В поисках истины, Бонд и М допрашивают Мистера Уайта, от которого узнают, что шантажировавшая Веспер Организация намного сложнее и опаснее, чем можно было подумать.

Судмедэксперты Mi6 устанавливают связь Веспер с анонимным банковским счётом на Гаити. Там Бонд случайно знакомится с боевой девушкой Камиллой, которая тоже жаждет мести. Через Камиллу Бонд выходит на Доминика Грина, жестокого бизнесмена и не последнего человека в Организации.

Побывав в Австрии, Италии и Южной Америке, Бонд узнает о совместном заговоре Грина и генерала Медрано с целью установления контроля над мировыми запасами нефти. Используя возможности Организации и верных ему людей в ЦРУ и британской разведке, Грин обещает генералу свергнуть существующий режим в латиноамериканской стране, в обмен на, казалось бы, пустынный участок земли.

Бонд прибегает к помощи старых друзей, чтобы установить истину. Чем ближе к установлению личности человека, толкнувшего Веспер на предательство, тем сложнее Бонду быть на шаг впереди ЦРУ, террористов и даже М, чтобы раскрыть злодейский план Грина и остановить его Организацию.

Выпущено: США, Великобритания  Columbia Pictures
Продолжительность: 1:46:14

Файл
Качество: Blu-ray Remux
Формат: BDAV
Видео: H.264/AVC, NTSC 23.976, 1920х1080, ~28931 кбит/с
Звук #1: Русский (Дублированный), DTS, 6ch (L, C, R, Ls, Rs +LFE), 768 кбит/с
Звук #2: Украинский (Дублированный), AC3, 6ch (L, C, R, Ls, Rs +LFE), 384 кбит/с
Звук #3: Английский (Оригинал), DTS-HD MА, 6ch (L, C, R, Ls, Rs +LFE), ~4093 кбит/с
Звук #4: Английский (Оригинал), AC3, 6ch (L, C, R, Ls, Rs +LFE), 448 кбит/с |Комментарии|
Субтитры: Русский (надписи и пр.), Русский (полные), Украинский (надписи и пр.), Украинский (полные), Английский.

mediainfo:

General
ID                               : 1
Complete name                    : N:\hd films\QU\BDMV\STREAM\00001.m2ts
Format                           : BDAV
Format/Info                      : BluRay Video
File size                        : 27.2 GiB
Duration                         : 1h 46mn
Overall bit rate                 : 36.6 Mbps
Maximum Overall bit rate         : 35.5 Mbps

Video
ID                               : 4113 (0x1011)
Menu ID                          : 1 (0x1)
Format                           : AVC
Format/Info                      : Advanced Video Codec
Format profile                   : High@L4.1
Format settings, CABAC           : Yes
Format settings, ReFrames        : 4 frames
Duration                         : 1h 46mn
Width                            : 1 920 pixels
Height                           : 1 080 pixels
Display aspect ratio             : 16/9
Frame rate                       : 23.976 fps
Resolution                       : 24 bits
Colorimetry                      : 4:2:0
Scan type                        : Progressive

Audio #1
ID                               : 4352 (0x1100)
Menu ID                          : 1 (0x1)
Format                           : DTS
Format/Info                      : Digital Theater Systems
Duration                         : 1h 46mn
Bit rate mode                    : Constant
Bit rate                         : 755 Kbps
Channel(s)                       : 6 channels
Channel positions                : Front: L C R, Surround: L R, LFE
Sampling rate                    : 48.0 KHz
Resolution                       : 24 bits
Stream size                      : 573 MiB (2%)
Language                         : Russian

Audio #2
ID                               : 4353 (0x1101)
Menu ID                          : 1 (0x1)
Format                           : AC-3
Format/Info                      : Audio Coding 3
Duration                         : 1h 46mn
Bit rate mode                    : Constant
Bit rate                         : 384 Kbps
Channel(s)                       : 6 channels
Channel positions                : Front: L C R, Surround: L R, LFE
Sampling rate                    : 48.0 KHz
Stream size                      : 292 MiB (1%)
Language                         : Ukrainian

Audio #3
ID                               : 4354 (0x1102)
Menu ID                          : 1 (0x1)
Format                           : DTS
Format/Info                      : Digital Theater Systems
Format profile                   : MA
Duration                         : 1h 46mn
Bit rate mode                    : Variable
Channel(s)                       : 6 channels
Channel positions                : Front: L C R, Surround: L R, LFE
Sampling rate                    : 48.0 KHz
Resolution                       : 24 bits
Language                         : English

Audio #4
ID                               : 4355 (0x1103)
Menu ID                          : 1 (0x1)
Format                           : AC-3
Format/Info                      : Audio Coding 3
Duration                         : 1h 46mn
Bit rate mode                    : Constant
Bit rate                         : 448 Kbps
Channel(s)                       : 6 channels
Channel positions                : Front: L C R, Surround: L R, LFE
Sampling rate                    : 48.0 KHz
Stream size                      : 340 MiB (1%)
Language                         : English

Text #1
ID                               : 4608 (0x1200)
Menu ID                          : 1 (0x1)
Format                           : PGS
Language                         : Russian

Text #2
ID                               : 4609 (0x1201)
Menu ID                          : 1 (0x1)
Format                           : PGS
Language                         : Russian

Text #3
ID                               : 4610 (0x1202)
Menu ID                          : 1 (0x1)
Format                           : PGS
Language                         : Ukrainian

Text #4
ID                               : 4611 (0x1203)
Menu ID                          : 1 (0x1)
Format                           : PGS
Language                         : Ukrainian

Text #5
ID                               : 4612 (0x1204)
Menu ID                          : 1 (0x1)
Format                           : PGS
Language                         : English

http://tracker.0day.kiev.ua/details.php?id=48124   GOLD раздача.
__________________
REMUX FOREVER

Watching HD on: LCD Sharp 46XL2E, Yamaha RX-V563, Yamaha NS-777, Yamaha NS-333, Yamaha NS-444, Yamaha YST-SW215, WD TV, My Book EE 1 TB (3), HP SE 1.5 ТБ (1)|| DVD watching on: Yamaha DVD-S663|| DVD-Audio, SACD: Onkyo DV-SP504E

Поделитесь со своими друзьями в соцсетях:

WDTV Forum / Форум про HD фильмы / Эти фильмы играются / Джеймс Бонд 007: Квант милосердия / James Bond 007: Quantum of Solace (2008