Неофициальный клуб пользователей HD видео плеера WD TV


»Юзер: »Пароль:   Запомнить? 
WDTV Forum / Форум про HD фильмы / Эти фильмы играются / Троя (Режиссёрская версия) / Troy (Director's Cut) / 2004 / Blu-Ray Remux
Написано:  21 Май 2009 01:25   Отредактировано: NetSearcher
Троя (Режиссёрская версия) / Troy (Director's Cut) / 2004 / Blu-Ray Remux

Статус идёт без глюков  Вот ещё подумываю удалить pulldown (29.97fps) есть места где явно видно что из за него слегка притормаживает.




О фильме: После того, как троянский царевич Парис влюбился в спартанскую царицу Елену и похитил ее, два мира сошлись в страшной битве под стенами неприступной Трои... Невероятно жестокая схватка, где было суждено сложить головы многим великим мужам прошлого. Перед нами оживет смертельный поединок двух лучших воинов древности - ветерана многих сражений, отважного троянского царевича Гектора, и неуязвимого спартанца Ахиллеса, которого почитали самым великим бойцом античного света.

Название: Троя
Оригинальное название: Troy
Год выпуска: 2004
Жанр: Боевик, мелодрама, драма, история
Выпущено: Warner Bros. Pictures
Режиссер: Вольфганг Петерсен
В ролях: Джулиан Гловер, Брайан Кокс, Натан Джонс, Адони Маропис, Джейкоб Смит, Брэд Питт, Джон Шрэпнел, Брендан Глисон, Дайан Крюгер, Эрик Бана, Орландо Блум, Сири Свеглер, Люси Барат, Кен Бонс, Мануэль Коши, Марк Льюис Джонс, Гаррет Хедлунд, Шон Бин, Джули Кристи, Питер О`Тул, Джеймс Космо
Качество: Blu-Ray Remux
Видео: VC-1, 16 Мбит/с, 1920x1080
Аудио: Русский (AC3, 6ch, 448 Кбит/с), английский (DTS, 6 ch, 1536 Кбит/с)
Размер: 22.03 ГБ
Продолжительность: 03:16:02
Перевод: Профессиональный, двухголосый
Размер: 22.03 ГБ (23,649,872,744 байт)

mediainfo:

General
Complete name                    : N:\hd films\Troya.2004.x264.Blu-Ray.Remux.mkv
Format                           : Matroska
File size                        : 22.0 GiB
Duration                         : 3h 16mn
Overall bit rate                 : 16.1 Mbps
Movie name                       : -=HANSMER=-
Encoded date                     : UTC 2007-11-07 21:00:47
Writing application              : mkvmerge v2.0.2 ('You're My Flame') built on Aug 15 2007 20:05:20
Writing library                  : libebml v0.7.7 + libmatroska v0.8.1

Video
ID                               : 1
Format                           : VC-1
Format profile                   : AP@L3
Codec ID                         : WVC1
Codec ID/Hint                    : Microsoft
Duration                         : 3h 15mn
Bit rate                         : 13.8 Mbps
Width                            : 1 920 pixels
Height                           : 1 080 pixels
Display aspect ratio             : 16/9
Frame rate                       : 29.970 fps
Resolution                       :  bit0
Colorimetry                      : 4:2:0
Scan type                        : Progressive
Bits/(Pixel*Frame)               : 0.222
Stream size                      : 18.9 GiB (86%)
Title                            : 1920x1080, VC-1, ~16mbit
Language                         : English

Audio #1
ID                               : 2
Format                           : AC-3
Format/Info                      : Audio Coding 3
Codec ID                         : A_AC3
Duration                         : 3h 16mn
Bit rate mode                    : Constant
Bit rate                         : 448 Kbps
Channel(s)                       : 6 channels
Channel positions                : Front: L C R, Surround: L R, LFE
Sampling rate                    : 48.0 KHz
Stream size                      : 628 MiB (3%)
Title                            : AC3, 6ch 448kbps
Language                         : Russian

Audio #2
ID                               : 3
Format                           : DTS
Format/Info                      : Digital Theater Systems
Codec ID                         : A_DTS
Duration                         : 3h 16mn
Bit rate mode                    : Constant
Bit rate                         : 1 510 Kbps
Channel(s)                       : 6 channels
Channel positions                : Front: L C R, Surround: L R, LFE
Sampling rate                    : 48.0 KHz
Resolution                       : 24 bits
Stream size                      : 2.07 GiB (9%)
Title                            : DTS 5.1, 1536kbps
Language                         : English


http://kinozal.tv/details.php?id=232520  Gold раздача.
__________________
REMUX FOREVER

Watching HD on: LCD Sharp 46XL2E, Yamaha RX-V563, Yamaha NS-777, Yamaha NS-333, Yamaha NS-444, Yamaha YST-SW215, WD TV, My Book EE 1 TB (3), HP SE 1.5 ТБ (1)|| DVD watching on: Yamaha DVD-S663|| DVD-Audio, SACD: Onkyo DV-SP504E

Поделитесь со своими друзьями в соцсетях:

WDTV Forum / Форум про HD фильмы / Эти фильмы играются / Троя (Режиссёрская версия) / Troy (Director's Cut) / 2004 / Blu-Ray Remux