Неофициальный клуб пользователей HD видео плеера WD TV


»Юзер: »Пароль:   Запомнить? 
Написано:  24 Окт 2010 20:10
имеем файл  General
Complete name                    : D:\Украинский квартал. Выпуск №1  (16.10.2010).mp4
Format                           : AVI
Format/Info                      : Audio Video Interleave
File size                        : 760 MiB
Duration                         : 1h 12mn
Overall bit rate                 : 1 467 Kbps
Writing application              : VirtualDubMod 1.5.10.2 (build 2540/release)
Writing library                  : VirtualDubMod build 2540/release

Video
ID                               : 0
Format                           : MPEG-4 Visual
Format profile                   : Simple@L1
Format settings, BVOP            : No
Format settings, QPel            : No
Format settings, GMC             : No warppoints
Format settings, Matrix          : Default (H.263)
Codec ID                         : XVID
Codec ID/Hint                    : XviD
Duration                         : 1h 12mn
Bit rate                         : 1 330 Kbps
Width                            : 704 pixels
Height                           : 528 pixels
Display aspect ratio             : 4:3
Frame rate                       : 25.000 fps
Color space                      : YUV
Chroma subsampling               : 4:2:0
Bit depth                        : 8 bits
Scan type                        : Progressive
Bits/(Pixel*Frame)               : 0.143
Stream size                      : 689 MiB (91%)
Writing library                  : Lavc52.30.2

Audio
ID                               : 1
Format                           : MPEG Audio
Format version                   : Version 1
Format profile                   : Layer 3
Mode                             : Joint stereo
Mode extension                   : MS Stereo
Codec ID                         : 55
Codec ID/Hint                    : MP3
Duration                         : 1h 12mn
Bit rate mode                    : Constant
Bit rate                         : 128 Kbps
Channel(s)                       : 2 channels
Sampling rate                    : 48.0 KHz
Stream size                      : 66.3 MiB (9%)
Alignment                        : Split accross interleaves
Interleave, duration             : 40 ms (1.00 video frame)
Interleave, preload duration     : 500 ms
Writing library                  : LAME3.98.2ЄЄЄЄЄЄЄЄЄЄ

не идет на Gen2.Пробовал менять расширение на mp4.И переконвертировать примитивным конвертором Format Factory в avi
Написано:  24 Окт 2010 20:25
должно быть в конце .avi и насчет названия лучше вначале на английском
и в догонку тема для изучения http://wdhd.ru/board/index.php?a=vtopic&t=1246
__________________
Sharp LC-32X20RU + WDTV Gen2 + WDTV Live (если понравилось 41001352107159 яндекс)
Написано:  24 Окт 2010 20:41
Спасибо изменил название на англ. все пошло на ура

Поделитесь со своими друзьями в соцсетях: