Неофициальный клуб пользователей HD видео плеера WD TV


»Юзер: »Пароль:   Запомнить? 
WDTV Forum / Форум про HD фильмы / Эти фильмы играются / У холмов есть глаза 2 / The Hills Have Eyes II 2007 (BD 1080p h264) Remux
Написано:  21 Май 2009 01:03
У холмов есть глаза 2 / The Hills Have Eyes II 2007 (BD 1080p h264)

Статус идёт без глюков



Описание    Во время учений солдаты Национальной гвардии США делают привал напограничной заставе в Нью-Мексико и, к своему удивлению, обнаруживают, что там никого нет. Получив сигнал тревоги, исходящий с отдаленной горной возвышенности, группа военных решает отправиться в этот район, чтобы помочь терпящим бедствие. Спасатели не знают, что это местечко когда-то посетила печально известная семья Картеров и что их поджидают кровожадные мутанты-каннибалы…

Год    2007
Страна    США
Жанр    ужасы, триллер, мелодрама
Продолжительность    1:30:00
Перевод    Закадровый (многоголосый)
Режиссер    Мартин Уэйц
В ролях    Cécile Breccia, Майкл Бэйли Смит, Арчи Као, Джей Аковон, Джефф Кобер, Филип Павел, Дэвид Рейнольдс, Tyrell Kemlo, Ли Томпсон Янг, Даниелла Алонсо, Эрик Эдельштейн, Джесика Струп, Joseph Beddelem, Jason Oettle, Джейкоб Варгас, Бен Краули, Майкл МакМиллиан, Reshad Strik, Fatiha Quatili, Флекс Александр, Jeremy Goei
Качество    BD
Видео    1080p h264 Remux from Blu-Ray
Аудио    Русский DTS 5.1 1510 kbps (закадровый): Английский DTS 5.1 1510 kbps
Субтитры   
Контейнер    MKV
Редактирован    2008-02-21 16:34:01
IMDB    Перейти
Тема на форуме    Перейти
Тип    HD DVD/BD Remux
Раздающий    Последний раз был здесь 17:28 назад
Размер    13.28 GB (14,264,362,938 байт)

mediainfo:

General
Complete name                    : N:\hd films\The Hills Have Eyes II 2007 (BD.1080p.h264).mkv
Format                           : Matroska
File size                        : 13.3 GiB
Duration                         : 1h 30mn
Overall bit rate                 : 21.1 Mbps
Encoded date                     : UTC 2007-12-09 11:24:56
Writing application              : mkvmerge v2.1.0 ('Another Place To Fall') built on Aug 19 2007 13:40:07
Writing library                  : libebml v0.7.7 + libmatroska v0.8.1

Video
ID                               : 1
Format                           : AVC
Format/Info                      : Advanced Video Codec
Format profile                   : High@L4.1
Format settings, CABAC           : Yes
Format settings, ReFrames        : 2 frames
Muxing mode                      : Container profile=Unknown@4.1
Codec ID                         : V_MPEG4/ISO/AVC
Duration                         : 1h 29mn
Bit rate                         : 17.6 Mbps
Width                            : 1 920 pixels
Height                           : 1 080 pixels
Display aspect ratio             : 16/9
Frame rate                       : 23.976 fps
Resolution                       : 24 bits
Colorimetry                      : 4:2:0
Scan type                        : Progressive
Bits/(Pixel*Frame)               : 0.355
Stream size                      : 11.1 GiB (83%)
Title                            : У холмов есть глаза 2
Language                         : Russian

Audio #1
ID                               : 2
Format                           : DTS
Format/Info                      : Digital Theater Systems
Codec ID                         : A_DTS
Duration                         : 1h 30mn
Bit rate mode                    : Constant
Bit rate                         : 1 536 Kbps
Channel(s)                       : 6 channels
Channel positions                : Front: L C R, Surround: L R, LFE
Sampling rate                    : 48.0 KHz
Resolution                       : 24 bits
Stream size                      : 989 MiB (7%)
Title                            : У холмов есть глаза 2
Language                         : Russian

Audio #2
ID                               : 3
Format                           : DTS
Format/Info                      : Digital Theater Systems
Codec ID                         : A_DTS
Duration                         : 1h 30mn
Bit rate mode                    : Constant
Bit rate                         : 1 536 Kbps
Channel(s)                       : 6 channels
Channel positions                : Front: L C R, Surround: L R, LFE
Sampling rate                    : 48.0 KHz
Resolution                       : 24 bits
Stream size                      : 989 MiB (7%)
Title                            : The Hills Have Eyes II
Language                         : English

http://hdtracker.ru/details.php?id=1119  GOLD раздача.
__________________
REMUX FOREVER

Watching HD on: LCD Sharp 46XL2E, Yamaha RX-V563, Yamaha NS-777, Yamaha NS-333, Yamaha NS-444, Yamaha YST-SW215, WD TV, My Book EE 1 TB (3), HP SE 1.5 ТБ (1)|| DVD watching on: Yamaha DVD-S663|| DVD-Audio, SACD: Onkyo DV-SP504E

Поделитесь со своими друзьями в соцсетях:

WDTV Forum / Форум про HD фильмы / Эти фильмы играются / У холмов есть глаза 2 / The Hills Have Eyes II 2007 (BD 1080p h264) Remux