Неофициальный клуб пользователей HD видео плеера WD TV


»Юзер: »Пароль:   Запомнить? 
WDTV Forum / Форум про HD фильмы / Эти фильмы играются / У Холмов Есть Глаза / The Hills Have Eyes 2006 (BD-rip 1080p x264)
Написано:  21 Май 2009 00:57   Отредактировано: NetSearcher
У Холмов Есть Глаза / The Hills Have Eyes 2006 (BD-rip 1080p x264)

Статус идёт без глюков



Описание    Ремейк одноименной ленты Уэса Крейвена 1977 года. Отправляясь в небольшое путешествие, семья Картеров и не подозревала, каким ужасом оно для них обернется. Решив уехать подальше от цивилизации, они забредают в необитаемую пустыню, которая раньше служила полигоном для ядерных испытаний. Неожиданно выясняется, что и на этой заброшенной территории есть свои «местные» жители – подвергнувшиеся облучению люди-мутанты, которые явно не рады незваным гостям.

Год    2006
Страна    США
Жанр    ужасы, триллер, драма, мистика
Продолжительность    1:45:00
Перевод    Закадровый (многоголосый)
Режиссер    Александр Ажа
В ролях    Максим Джиффар, Майкл Бейли Смит, Том Боуэр, Тед Левайн, Кэтлин Куинлан, Дэн Берд, Эмили де Равин, Аарон Стенфорд, Винесса Шоу, Мэйси Камильери Пресьоси и др.
Качество    BDRip
Видео    1920x816p x264 10634kbps
Аудио    Русский AC3 5.1 640 kbps (закадровый): Английский AC3 5.1 640 kbps
Субтитры   
Контейнер    MKV
Редактирован    2008-02-05 15:12:09
IMDB    Перейти
Тема на форуме    Перейти
Тип    HD DVD/BD Rip 1080
Раздающий    Последний раз был здесь 7:18 назад
Размер    8.74 GB (9,383,918,750 байт)

mediainfo:

General
Complete name                    : N:\hd films\The Hills Have Eyes 2006 (BD-rip.1080p.x264).mkv
Format                           : Matroska
File size                        : 8.74 GiB
Duration                         : 1h 45mn
Overall bit rate                 : 11.9 Mbps
Encoded date                     : UTC 2007-12-12 20:36:35
Writing application              : mkvmerge v2.1.0 ('Another Place To Fall') built on Aug 19 2007 13:40:07
Writing library                  : libebml v0.7.7 + libmatroska v0.8.1

Video
ID                               : 1
Format                           : AVC
Format/Info                      : Advanced Video Codec
Format profile                   : High@L5.1
Format settings, CABAC           : Yes
Format settings, ReFrames        : 8 frames
Muxing mode                      : Container profile=Unknown@5.1
Codec ID                         : V_MPEG4/ISO/AVC
Duration                         : 1h 44mn
Bit rate                         : 10.4 Mbps
Nominal bit rate                 : 10.6 Mbps
Width                            : 1 920 pixels
Height                           : 816 pixels
Display aspect ratio             : 2.35
Frame rate                       : 23.976 fps
Resolution                       : 24 bits
Colorimetry                      : 4:2:0
Scan type                        : Progressive
Bits/(Pixel*Frame)               : 0.277
Stream size                      : 7.62 GiB (87%)
Title                            : У холмов есть глаза
Writing library                  : x264 core 57 svn-709C
Encoding settings                : cabac=1 / ref=5 / deblock=1:-3:-3 / analyse=0x3:0x133 / me=umh / fpel_cmp=sad / subme=7 / me-prepass=0 / brdo=1 / mixed_ref=1 / me_range=16 / chroma_me=1 / trellis=1 / 8x8dct=1 / cqm=2 / deadzone=21,11 / chroma_qp_offset=0 / threads=3 / nr=0 / decimate=1 / mbaff=0 / bframes=3 / b_pyramid=1 / b_adapt=1 / b_bias=0 / direct=3 / wpredb=1 / bime=1 / keyint=250 / keyint_min=25 / scenecut=40(pre) / rc=2pass / bitrate=10635 / ratetol=2.0 / rceq='blurCplx^(1-qComp)' / qcomp=0.60 / qpmin=10 / qpmax=51 / qpstep=4 / cplxblur=20.0 / qblur=0.5 / ip_ratio=1.40 / pb_ratio=1.30 / aq=1:0.3:15.0
Language                         : Russian

Audio #1
ID                               : 2
Format                           : AC-3
Format/Info                      : Audio Coding 3
Codec ID                         : A_AC3
Duration                         : 1h 45mn
Bit rate mode                    : Constant
Bit rate                         : 640 Kbps
Channel(s)                       : 6 channels
Channel positions                : Front: L C R, Surround: L R, LFE
Sampling rate                    : 48.0 KHz
Stream size                      : 481 MiB (5%)
Title                            : У холмов есть глаза
Language                         : Russian

Audio #2
ID                               : 3
Format                           : AC-3
Format/Info                      : Audio Coding 3
Codec ID                         : A_AC3
Duration                         : 1h 45mn
Bit rate mode                    : Constant
Bit rate                         : 640 Kbps
Channel(s)                       : 6 channels
Channel positions                : Front: L C R, Surround: L R, LFE
Sampling rate                    : 48.0 KHz
Stream size                      : 481 MiB (5%)
Title                            : The Hills Have Eyes
Language                         : English

http://hdtracker.ru/details.php?id=1128  GOLD раздача
__________________
REMUX FOREVER

Watching HD on: LCD Sharp 46XL2E, Yamaha RX-V563, Yamaha NS-777, Yamaha NS-333, Yamaha NS-444, Yamaha YST-SW215, WD TV, My Book EE 1 TB (3), HP SE 1.5 ТБ (1)|| DVD watching on: Yamaha DVD-S663|| DVD-Audio, SACD: Onkyo DV-SP504E

Поделитесь со своими друзьями в соцсетях:

WDTV Forum / Форум про HD фильмы / Эти фильмы играются / У Холмов Есть Глаза / The Hills Have Eyes 2006 (BD-rip 1080p x264)