Неофициальный клуб пользователей HD видео плеера WD TV


»Юзер: »Пароль:   Запомнить? 
Написано:  19 Янв 2011 21:30
Ок. Спасибо, попробую. Надо бы закрыть как-то вопрос, а-то противоречивые какие-то сведения на этот счет. Отпишусь.
__________________
WD TV Live(00) 1.02.21; WD TV Live(Gen3) 1.07.15
Написано:  20 Янв 2011 17:36
ПОЯВИЛСЯ В ПРОДАЖЕ WD TV Live Hub 1Tb
http://sidex.ru/view.php?id=2809
Написано:  20 Янв 2011 18:26   Отредактировано: Hola
И в Diamond Electric появился (7435 руб.), тоже сегодня.
Наверное в одном месте заказывают
http://wdhd.ru/shop.html#live-hub
Написано:  20 Янв 2011 19:08
Цитата:
Ну или вот...  Тестовый диск-там все варианты звука есть

Потестил, в итоге файл DD_TrueHD.m2ts определился ресивером как Dolby TrueHD, но даже этот секундный фрагмент заткнулся на полпути. Посмотрел в медиаинфо, а это оказывается ядро:

Audio
ID                               : 4352 (0x1100)
Menu ID                          : 1 (0x1)
Format                           : AC-3
Format/Info                  : Audio Coding 3
Format profile               : TrueHD / Core
Mode extension            : CM (complete main)
Muxing mode                : Stream extension
Codec ID                         : 131
Duration                         : 11s 40ms
Bit rate mode                 : Variable / Constant
Bit rate                             : 640 Kbps
Maximum bit rate          : 6 423 Kbps
Channel(s)                       : 8 channels / 6 channels
Channel positions          : Front: L C R, Side: L R, Back: L R, LFE / Front: L C R, Side: L R, LFE
Sampling rate                  : 48.0 KHz
Bit depth                        : 16 bits
Compression mode        : Lossy
Stream size                      : 862 KiB (2%)

DD-EX.vob определился ресом как DTS EX DSRT

Вчерашную дорогу прикрутил к фильму в матрёху. Не распозналась и молчит.
Ладно, забиваю на это дело, пока. Будем посмотреть как там на Hub обстоит это дело.
__________________
WD TV Live(00) 1.02.21; WD TV Live(Gen3) 1.07.15
Написано:  20 Янв 2011 19:37
3d гонял кто по ней?
Написано:  20 Янв 2011 21:22
Хм странно цена уже почти в два раза дороже
Написано:  20 Янв 2011 22:45
Цитата:
Хм странно цена уже почти в два раза дороже

Это реальная цена для России на сегодня. Сам рассуди, за бугром он стоит 200$. Так что.
__________________
Samsung LE-40 B 530 P7W + WDTV Gen1
Написано:  21 Янв 2011 00:55   Отредактировано: NikkoN
Появился и у нас. Цена в украинском инет магазине 360-370 баксов.. Я знал что будет дороже, но не на столько-же.. Дюна стоит 330 баксов..
http://homestore.com.ua/products/14929/
Написано:  21 Янв 2011 12:42   Отредактировано: NetSearcher
Цитата:
Появился и у нас. Цена в украинском инет магазине 360-370 баксов.. Я знал что будет дороже, но не на столько-же.. Дюна стоит 330 баксов..
http://homestore.com.ua/products/14929/


уже приехал я могу сделать цену 350$ но в любом случае это цена загнаная дистрибьютором, есть вероятность что получиться договориться о снижении цены в течении недели, после того как их никто не будет брать
__________________
REMUX FOREVER

Watching HD on: LCD Sharp 46XL2E, Yamaha RX-V563, Yamaha NS-777, Yamaha NS-333, Yamaha NS-444, Yamaha YST-SW215, WD TV, My Book EE 1 TB (3), HP SE 1.5 ТБ (1)|| DVD watching on: Yamaha DVD-S663|| DVD-Audio, SACD: Onkyo DV-SP504E
Написано:  21 Янв 2011 19:58
NetSearcher, не, 350 баксов я однозначно не потяну. Пока буду смотреть свой старый Ген1 Не думаю что кто-то будет брать хаб по такой цене.. Пройдет месяц-два и цена должна упасть.. Будем подождать.
Написано:  22 Янв 2011 00:27   Отредактировано: AlexSSS
iMe
скачал диск 'Dolby - The Sound Of High Definition Blu-Ray'
запускал по отдельности m2ts файлы
на все файлы, у которых стоял логотип TrueHD (там есть и DD+ и т.п.) на ресивере загорались надпись Dolby HD

решил проверить медиаинфо - везде стоит TrueHD / Core

думаю, это ошибка в последней (или последних) версиях медиаинфо
Написано:  22 Янв 2011 01:09
>везде стоит TrueHD / Core
дошло. Это говорит о том, что в треке есть и TrueHD и Core
так что на ресивер идет честный TrueHD
Написано:  22 Янв 2011 09:19
Где-то мелькнула информация, что готовится редакция WD TV Live Hub с USB 3.0 ?
   Кто что-нибудь знает про это?
Написано:  22 Янв 2011 09:32
to chik:  раз мелькнуло ,то укажи где .
__________________
dlink dir 615,wdtv live 01
Написано:  22 Янв 2011 11:25   Отредактировано: AlexSSS
> Где-то мелькнула информация, что готовится редакция
> WD TV Live Hub с USB 3.0 ?
> Кто что-нибудь знает про это?
в спецификациях можно написать что угодно
но пока не сменится чип на более мощный, большого прироста скорости не будет

у хаба уже есть гигабитная сеть, которая не обеспечивает даже 150 мегабит
есть USB2, где скорость не выше тех же 150 мегабит
есть HDMI 1.4, возможности которого просто не задействованы
Написано:  22 Янв 2011 12:47   Отредактировано: iMe
AlexSS, спасибо за пояснение. В любом случае, у меня на Live нормально это не работает. Буду отслеживать Hub.
__________________
WD TV Live(00) 1.02.21; WD TV Live(Gen3) 1.07.15
Написано:  22 Янв 2011 14:14
на хабе темы можно создавать самому, либо дополнительно настраивать имеющиеся
описание

темы находятся в .wd_tv\theme\, все настройки содержатся в XML файлах
Написано:  22 Янв 2011 17:08
Цитата:
>везде стоит TrueHD / Core
дошло. Это говорит о том, что в треке есть и TrueHD и Core
дошло. Это говорит о том, что в треке есть и TrueHD и Core
так что на ресивер идет честный TrueHD


просьба лично от меня. Вытащи core любой програмой какой тебе удобно и запихни его параллельно, и скажи насколько ты ощутил разницу между TrueHD и core и отпишись в чём она была выраженее, насыщенне звук, мощнее бассы, доп. еффекты какие то были слышны и тд.
__________________
REMUX FOREVER

Watching HD on: LCD Sharp 46XL2E, Yamaha RX-V563, Yamaha NS-777, Yamaha NS-333, Yamaha NS-444, Yamaha YST-SW215, WD TV, My Book EE 1 TB (3), HP SE 1.5 ТБ (1)|| DVD watching on: Yamaha DVD-S663|| DVD-Audio, SACD: Onkyo DV-SP504E
Написано:  22 Янв 2011 17:11
Цитата:
NetSearcher, не, 350 баксов я однозначно не потяну. Пока буду смотреть свой старый Ген1  Не думаю что кто-то будет брать хаб по такой цене.. Пройдет месяц-два и цена должна упасть.. Будем подождать.


по этой цене врядли кто то купит, думаю бренд менеджер у дисти WD это в скором времени поймёт, я с ним общался но толку мало, он говорит что пока цена останется на этой отметке, если будет опускаться я сообщу.

В любом случае 4 дисти WD в Киеве, завозят плееры только 3. Пока завёз только один. Когда завезёт ещё один и выставит адекватную цену, спекуляции прийдёт конец
__________________
REMUX FOREVER

Watching HD on: LCD Sharp 46XL2E, Yamaha RX-V563, Yamaha NS-777, Yamaha NS-333, Yamaha NS-444, Yamaha YST-SW215, WD TV, My Book EE 1 TB (3), HP SE 1.5 ТБ (1)|| DVD watching on: Yamaha DVD-S663|| DVD-Audio, SACD: Onkyo DV-SP504E
Написано:  22 Янв 2011 19:04
мое предположение, что TrueHD / Core в медиаинфо обозначает, что там есть и TRUE HD и ядро, косвенно подтверждается

TSMuser на такие дорожки говорит что-то типа Peak bitrate: 5574Kbps (core 640Kbps)

ps. на слух пока не сравнивал, бросьте что-нибудь из прог, которыми эти потоки можно разделить
Написано:  22 Янв 2011 21:04   Отредактировано: NetSearcher
Цитата:
TSMuser на такие дорожки говорит что-то типа Peak bitrate: 5574Kbps (core 640Kbps)

ps. на слух пока не сравнивал, бросьте что-нибудь из прог, которыми эти потоки можно разделить


tsmuxer вытаскивает ядро, открываешь файл,  выбираешь hd дорожку и в general track options  есть опция downconvert - вытаскиваешь ядро, а потом опять же им и добавляешь в тот же файл и муксишь.
__________________
REMUX FOREVER

Watching HD on: LCD Sharp 46XL2E, Yamaha RX-V563, Yamaha NS-777, Yamaha NS-333, Yamaha NS-444, Yamaha YST-SW215, WD TV, My Book EE 1 TB (3), HP SE 1.5 ТБ (1)|| DVD watching on: Yamaha DVD-S663|| DVD-Audio, SACD: Onkyo DV-SP504E
Написано:  22 Янв 2011 21:08
NetSearcher
спасибо, посмотрю
Написано:  22 Янв 2011 22:10   Отредактировано: AlexSSS
NetSearcher
взял четыре трека с TrueHD, выделил на них Core и засунул его обратно. Т.е получил 4 трека. в которых отдельными дорожками шли TrueHD и Core

включаю трек, закрываю глаза, какое-то число раз переключаю аудио дорожки, потом пытаюсь определить, какая играет лучше.

Угадал 3 раза из 4-х, но уверенной разницы я не услышал.
Написано:  22 Янв 2011 22:37
AlexSSS, а в mkv они не проиграются? Я так понял, что только в m2ts?
__________________
WD TV Live(00) 1.02.21; WD TV Live(Gen3) 1.07.15
Написано:  22 Янв 2011 22:52
iMe
перегнал в MKV - TrueHD нормально воспроизводится.

кстати, MKV на хабе запускается гораздо быстрее, чем M2TS. Разница по времени - 2-3 раза
Написано:  22 Янв 2011 22:53
Отлично!
__________________
WD TV Live(00) 1.02.21; WD TV Live(Gen3) 1.07.15
Написано:  22 Янв 2011 23:29
Цитата:
NetSearcher
взял четыре трека с TrueHD, выделил на них Core и засунул его обратно. Т.е получил 4 трека. в которых отдельными дорожками шли TrueHD и Core
взял четыре трека с TrueHD, выделил на них Core и засунул его обратно. Т.е получил 4 трека. в которых отдельными дорожками шли TrueHD и Core

включаю трек, закрываю глаза, какое-то число раз переключаю аудио дорожки, потом пытаюсь определить, какая играет лучше.
включаю трек, закрываю глаза, какое-то число раз переключаю аудио дорожки, потом пытаюсь определить, какая играет лучше.

Угадал 3 раза из 4-х, но уверенной разницы я не услышал.


какой у тебя ресивер и акустика?
__________________
REMUX FOREVER

Watching HD on: LCD Sharp 46XL2E, Yamaha RX-V563, Yamaha NS-777, Yamaha NS-333, Yamaha NS-444, Yamaha YST-SW215, WD TV, My Book EE 1 TB (3), HP SE 1.5 ТБ (1)|| DVD watching on: Yamaha DVD-S663|| DVD-Audio, SACD: Onkyo DV-SP504E
Написано:  22 Янв 2011 23:38   Отредактировано: AlexSSS
Ресивер: Denon AVR-1910
Акустика:
фронты: JMLab Chorus 707
тылы: Mirage Nanosat
саб: Energy S8.3

послушаю еще завтра с утра на свежую голову
Написано:  23 Янв 2011 03:10   Отредактировано: AlexSSS
есть MKV, где есть DD и DTS дорожки
но они с разным уровнем громкости, для слепого тестирования не пойдут. в чем можно привести уровень разных дорожек к одному уровню?

стал вслепую слушать Жара, там две аудиодорожки, DD и DTS. 5 раз подряд более предпочтительным оказался вариант с DD.
пора ложиться спать

Audio #1
ID                               : 4352 (0x1100)
Menu ID                          : 1 (0x1)
Format                           : DTS
Format/Info                      : Digital Theater Systems
Codec ID                         : 130
Duration                         : 22mn 15s
Bit rate mode                    : Constant
Bit rate                         : 1 510 Kbps
Channel(s)                       : 6 channels
Channel positions                : Front: L C R, Side: L R, LFE
Sampling rate                    : 48.0 KHz
Bit depth                        : 24 bits
Compression mode                 : Lossy
Stream size                      : 240 MiB (16%)

Audio #2
ID                               : 4353 (0x1101)
Menu ID                          : 1 (0x1)
Format                           : AC-3
Format/Info                      : Audio Coding 3
Mode extension                   : CM (complete main)
Codec ID                         : 129
Duration                         : 22mn 15s
Bit rate mode                    : Constant
Bit rate                         : 448 Kbps
Channel(s)                       : 6 channels
Channel positions                : Front: L C R, Side: L R, LFE
Sampling rate                    : 48.0 KHz
Bit depth                        : 16 bits
Compression mode                 : Lossy
Stream size                      : 71.3 MiB (5%)
Написано:  23 Янв 2011 16:20   Отредактировано: Fant777
to AlexSSS: подскажите, а звук на пульте ДУ регулируется?

Поделитесь со своими друзьями в соцсетях: