Неофициальный клуб пользователей HD видео плеера WD TV


»Юзер: »Пароль:   Запомнить? 
Написано:  02 Окт 2010 12:36
Подскажите пожалуйста, в чем дело!
Плеер воспроизводит BDrip, remux и тп без проблем, но вот как только даешь ему файл Web-Dl, при включении экран как-будто сейчас начнется фильм, но ничего не происходит и после этого не запускается ни один файл, а в верху постоянно появляется надпись с названием файла и какой-то маленький микрофончик что ли. Спасает только нажатие в системных свойствах Reset.
Такое повторяется уже с тремя файлами Web-Dl
Помогите!)

Вот инфа файла
General
Complete name                    : F:\SPARK\ВИДЕО\СЕРИАЛЫ\HouseMD\House MD 7\House.M.D.S07.720p.WEB-DL\House.M.D.S07E02.720p.Selfish.WEB-DL.Rus.Eng.mkv
Format                           : Matroska
File size                        : 1.57 GiB
Duration                         : 43mn 59s
Overall bit rate                 : 5 126 Kbps
Movie name                       : House M.D. [Season 7] (2010) - Release for HDCLUB
Encoded date                     : UTC 2010-10-01 20:12:33
Writing application              : mkvmerge v4.2.0 ('No Talking') сборка от Aug  1 2010 22:50:30
Writing library                  : libebml v1.0.0 + libmatroska v1.0.0

Video
ID                               : 1
Format                           : AVC
Format/Info                      : Advanced Video Codec
Format profile                   : High@L3.1
Format settings, CABAC           : No
Format settings, ReFrames        : 2 frames
Muxing mode                      : Container profile=Unknown@3.1
Codec ID                         : V_MPEG4/ISO/AVC
Duration                         : 43mn 59s
Bit rate                         : 4 192 Kbps
Width                            : 1 280 pixels
Height                           : 720 pixels
Display aspect ratio             : 16:9
Frame rate                       : 23.976 fps
Resolution                       : 8 bits
Colorimetry                      : 4:2:0
Scan type                        : Progressive
Bits/(Pixel*Frame)               : 0.190
Stream size                      : 1.29 GiB (82%)
Title                            : Season 7, Episode 2: Selfish / Эгоизм - Release for HDCLUB
Color primaries                  : BT.709-5, BT.1361, IEC 61966-2-4, SMPTE RP177
Transfer characteristics         : BT.709-5, BT.1361
Matrix coefficients              : BT.709-5, BT.1361, IEC 61966-2-4 709, SMPTE RP177

Audio #1
ID                               : 2
Format                           : AC-3
Format/Info                      : Audio Coding 3
Format_Settings_ModeExtension    : CM (complete main)
Codec ID                         : A_AC3
Duration                         : 43mn 59s
Bit rate mode                    : Constant
Bit rate                         : 448 Kbps
Channel(s)                       : 6 channels
Channel positions                : Front: L C R, Side: L R, LFE
Sampling rate                    : 48.0 KHz
Stream size                      : 141 MiB (9%)
Title                            : LostFilm.tv
Language                         : Russian

Audio #2
ID                               : 3
Format                           : AC-3
Format/Info                      : Audio Coding 3
Format_Settings_ModeExtension    : CM (complete main)
Codec ID                         : A_AC3
Duration                         : 43mn 59s
Bit rate mode                    : Constant
Bit rate                         : 384 Kbps
Channel(s)                       : 6 channels
Channel positions                : Front: L C R, Side: L R, LFE
Sampling rate                    : 48.0 KHz
Stream size                      : 121 MiB (7%)
Title                            : Original

Text #1
ID                               : 4
Format                           : UTF-8
Codec ID                         : S_TEXT/UTF8
Codec ID/Info                    : UTF-8 Plain Text
Language                         : Russian

Text #2
ID                               : 5
Format                           : UTF-8
Codec ID                         : S_TEXT/UTF8
Codec ID/Info                    : UTF-8 Plain Text
Написано:  02 Окт 2010 13:24
читаем фак http://wdhd.ru/faq.php?q_id=13
надо переделать в mkvmerge v4.0
__________________
Sharp LC-32X20RU + WDTV Gen2 + WDTV Live (если понравилось 41001352107159 яндекс)
Написано:  02 Окт 2010 16:34
Спасибо! Все получилось!)
Написано:  02 Окт 2010 17:26
А для чего это нужно делать? я к тому, что если у меня другой файл качества web-dl но не mkv а Avi это тоже нужно делать или нет?
Написано:  02 Окт 2010 19:04
если такой параметр начиная выше 4.0 версии Writing application              : mkvmerge v4.2.0
__________________
Sharp LC-32X20RU + WDTV Gen2 + WDTV Live (если понравилось 41001352107159 яндекс)
Написано:  02 Окт 2010 19:37
Цитата:
я к тому, что если у меня другой файл качества web-dl но не mkv а Avi это тоже нужно делать или нет?

ничего не делай
это только матрёшки касается (mkv), причём собранной последними версиями MKVmerge
__________________
Где купить WD TV: Live Streaming
Написано:  03 Окт 2010 16:38
Спасибос!)

Поделитесь со своими друзьями в соцсетях: