Неофициальный клуб пользователей HD видео плеера WD TV


»Юзер: »Пароль:   Запомнить? 
Написано:  29 Сен 2010 17:16   Отредактировано: Musslik
Не запускается эффект бабочки (Wd gen 2)
General
Complete name                    : D:\Видео\Butterfly Effect (Directors Cut).2004.BD.Rip.1080p.h264.Rus.Eng .mkv
Format                           : Matroska
File size                        : 11.4 GiB
Duration                         : 2h 4mn
Overall bit rate                 : 13.2 Mbps
Encoded date                     : UTC 2010-09-19 10:41:03
Writing application              : mkvmerge v4.3.0 ('Escape from the Island') сборка от Sep  5 2010 10:30:51
Writing library                  : libebml v1.0.0 + libmatroska v1.0.0

Video
ID                               : 1
Format                           : AVC
Format/Info                      : Advanced Video Codec
Format profile                   : High@L4.1
Format settings, CABAC           : Yes
Format settings, ReFrames        : 4 frames
Muxing mode                      : Container profile=Unknown@4.1
Codec ID                         : V_MPEG4/ISO/AVC
Duration                         : 2h 4mn
Bit rate                         : 9 436 Kbps
Nominal bit rate                 : 10.2 Mbps
Width                            : 1 920 pixels
Height                           : 1 080 pixels
Display aspect ratio             : 16:9
Frame rate                       : 23.976 fps
Resolution                       : 24 bits
Colorimetry                      : 4:2:0
Scan type                        : Progressive
Bits/(Pixel*Frame)               : 0.190
Stream size                      : 8.19 GiB (72%)
Writing library                  : x264 core 67 r1145M d2e1e1c
Encoding settings                : cabac=1 / ref=4 / deblock=1:-3:-3 / analyse=0x3:0x113 / me=umh / subme=9 / psy_rd=1.0:0.0 / mixed_ref=1 / me_range=32 / chroma_me=1 / trellis=2 / 8x8dct=1 / cqm=0 / deadzone=21,11 / chroma_qp_offset=-2 / threads=6 / nr=0 / decimate=1 / mbaff=0 / bframes=3 / b_pyramid=1 / b_adapt=2 / b_bias=0 / direct=3 / wpredb=1 / keyint=250 / keyint_min=25 / scenecut=40 / rc=2pass / bitrate=10166 / ratetol=1.0 / qcomp=0.60 / qpmin=10 / qpmax=51 / qpstep=4 / cplxblur=20.0 / qblur=0.5 / ip_ratio=1.40 / pb_ratio=1.30 / aq=1:0.80

Audio #1
ID                               : 2
Format                           : AC-3
Format/Info                      : Audio Coding 3
Codec ID                         : A_AC3
Duration                         : 2h 4mn
Bit rate mode                    : Constant
Bit rate                         : 448 Kbps
Channel(s)                       : 6 channels
Channel positions                : Front: L C R, Surround: L R, LFE
Sampling rate                    : 48.0 KHz
Video delay                      : 20ms
Stream size                      : 399 MiB (3%)
Title                            : AC3 5.1 448 kbps
Language                         : Russian

Audio #2
ID                               : 3
Format                           : DTS
Format/Info                      : Digital Theater Systems
Codec ID                         : A_DTS
Duration                         : 2h 4mn
Bit rate mode                    : Constant
Bit rate                         : 1 510 Kbps
Channel(s)                       : 6 channels
Channel positions                : Front: L C R, Surround: L R, LFE
Sampling rate                    : 48.0 KHz
Resolution                       : 24 bits
Stream size                      : 1.31 GiB (11%)
Title                            : DTS 5.1 1536 kbps

Audio #3
ID                               : 6
Format                           : DTS
Format/Info                      : Digital Theater Systems
Codec ID                         : A_DTS
Duration                         : 2h 4mn
Bit rate mode                    : Constant
Bit rate                         : 1 510 Kbps
Channel(s)                       : 6 channels
Channel positions                : Front: L C R, Surround: L R, LFE
Sampling rate                    : 48.0 KHz
Resolution                       : 24 bits
Stream size                      : 1.31 GiB (11%)
Title                            : DTS 5.1 1536 kbps
Language                         : Russian

Text #1
ID                               : 4
Format                           : UTF-8
Codec ID                         : S_TEXT/UTF8
Codec ID/Info                    : UTF-8 Plain Text
Language                         : Russian

Text #2
ID                               : 5
Format                           : UTF-8
Codec ID                         : S_TEXT/UTF8
Codec ID/Info                    : UTF-8 Plain Text
Написано:  29 Сен 2010 17:27
Цитата:
  : mkvmerge v4.3.0

__________________
WDTV Live(00)+Panasonic TX-PR50ST30+WD Elements 1tb+Trascend 320g
Написано:  29 Сен 2010 18:22
http://wdhd.ru/faq.php?q_id=13 переделать в mkvmerge v4.0
__________________
Sharp LC-32X20RU + WDTV Gen2 + WDTV Live (если понравилось 41001352107159 яндекс)

Поделитесь со своими друзьями в соцсетях: