Неофициальный клуб пользователей HD видео плеера WD TV


»Юзер: »Пароль:   Запомнить? 
WDTV Forum / Форум про WD TV Gen1 / Опыт эксплуатации / Не воспроизводит ни один файл
Написано:  12 Сен 2010 21:00   Отредактировано: dmi144
Помогите кто-нибудь. Купил WDTV полтора года назад. Все игралось на ура. Но сегодня посмотрел фильм, решил посмотреть следующий и возникла проблема: навигация по меню идет, но когда нажимаешь воспроизведение файла возникает серый экран и ничего не происходит. Прошивку откатывал на заводскую, ставил 1.03.01, 1.02.07 - все без толку. Кнопку сброса нажимал - тоже самое. Подключение через HDMI. Чувствую кирдык проигрывателю пришел. А жаль плеер нравился. Не было у кого-нибудь такого и как это лечить?
Написано:  12 Сен 2010 21:17
сбойный файл удалить,а плеер отключить от розетки (либо сделать резет)

тему переместил
__________________
Sharp LC-32X20RU + WDTV Gen2 + WDTV Live (если понравилось 41001352107159 яндекс)
Написано:  13 Сен 2010 11:11
Проблема решена. Все дело в глючном файле. Вот его media info
General
Complete name                    : G:\06Fei.Volshebnoe.spasenie.2010.D.BDRip.720p.mkv
Format                           : Matroska
File size                        : 2.42 GiB
Duration                         : 1h 16mn
Overall bit rate                 : 4 538 Kbps
Encoded date                     : UTC 2010-09-08 13:09:55
Writing application              : mkvmerge v4.2.0 ('No Talking') сборка от Jul 28 2010 18:38:23
Writing library                  : libebml v1.0.0 + libmatroska v1.0.0

Video
ID                               : 1
Format                           : AVC
Format/Info                      : Advanced Video Codec
Format profile                   : High@L4.1
Format settings, CABAC           : Yes
Format settings, ReFrames        : 5 frames
Muxing mode                      : Container profile=Unknown@4.1
Codec ID                         : V_MPEG4/ISO/AVC
Duration                         : 1h 16mn
Bit rate                         : 2 583 Kbps
Width                            : 1 280 pixels
Height                           : 720 pixels
Display aspect ratio             : 16:9
Frame rate                       : 23.976 fps
Color space                      : YUV
Chroma subsampling               : 4:2:0
Bit depth                        : 8 bits
Scan type                        : Progressive
Bits/(Pixel*Frame)               : 0.117
Stream size                      : 1.33 GiB (55%)
Writing library                  : x264 core 104 r1703 cd21d05
Encoding settings                : cabac=1 / ref=5 / deblock=1:0:0 / analyse=0x3:0x133 / me=umh / subme=8 / psy=1 / psy_rd=1.00:0.00 / mixed_ref=1 / me_range=16 / chroma_me=1 / trellis=1 / 8x8dct=1 / cqm=0 / deadzone=21,11 / fast_pskip=0 / chroma_qp_offset=-2 / threads=18 / sliced_threads=0 / nr=0 / decimate=1 / interlaced=0 / constrained_intra=0 / bframes=3 / b_pyramid=2 / b_adapt=1 / b_bias=0 / direct=1 / weightb=1 / open_gop=0 / weightp=2 / keyint=240 / keyint_min=24 / scenecut=40 / intra_refresh=0 / rc_lookahead=40 / rc=2pass / mbtree=1 / bitrate=2583 / ratetol=1.0 / qcomp=0.60 / qpmin=10 / qpmax=51 / qpstep=4 / cplxblur=20.0 / qblur=0.5 / ip_ratio=1.40 / aq=1:1.00

Audio #1
ID                               : 2
Format                           : AC-3
Format/Info                      : Audio Coding 3
Mode extension                   : CM (complete main)
Codec ID                         : A_AC3
Duration                         : 1h 16mn
Bit rate mode                    : Constant
Bit rate                         : 448 Kbps
Channel(s)                       : 6 channels
Channel positions                : Front: L C R, Side: L R, LFE
Sampling rate                    : 48.0 KHz
Stream size                      : 245 MiB (10%)
Language                         : Russian

Audio #2
ID                               : 3
Format                           : DTS
Format/Info                      : Digital Theater Systems
Codec ID                         : A_DTS
Duration                         : 1h 16mn
Bit rate mode                    : Constant
Bit rate                         : 1 510 Kbps
Channel(s)                       : 6 channels
Channel positions                : Front: L C R, Side: L R, LFE
Sampling rate                    : 48.0 KHz
Bit depth                        : 24 bits
Stream size                      : 826 MiB (33%)
Написано:  01 Окт 2010 06:27
СПАСИБО!  Три дня плеер не фурычил, та же самая проблема. Сейчас все заработало!
Написано:  03 Окт 2010 07:50
dmi144,

У меня то же самая проблема и тоже плеер у меня около полтора года работал без проблем...
Сейчас при таких проблем (где-то появлаются раз в две недели) просто отключаю и опять включаю плеер из розетки.
__________________
Andrei
Написано:  03 Окт 2010 18:15
Это не файл глючный, а проблема вот в этом  mkvmerge v4.2.0 ('No Talking') сборка от Jul 28 2010 18:38:23. У меня тоже плеер идёт в "отказняк" после таких фильмов, помогает обесточивание. Ну а файл соответственно перегнать через  mkvmerge v4.0.0
__________________
Samsung LE-40 B 530 P7W + WDTV Gen1
Написано:  04 Окт 2010 11:34
"У меня тоже плеер идёт в "отказняк" после таких фильмов, помогает обесточивание." Если альтернативная прошивка стоит, достаточно reload через telnet.
Написано:  04 Окт 2010 12:42
Цитата:
Если альтернативная прошивка стоит, достаточно reload через telnet.

В альтернативной прошивке можно перегрузить и с помощью ПДУ.
Написано:  20 Ноя 2010 21:24   Отредактировано: danil2606
...тоже было такое, попытка воспроизведения-темный экран-потом(!!!)возможность вернуться в меню, и ни один файл не воспроизводится. Удалил битый файл, с которого всё началось.Выкл\вкл шнур в розетку и всЁ!
Кстати, битый файл- вторая серия сериала "Врата", в базе фильмов здесь есть!
Написано:  20 Ноя 2010 21:47
Цитата:
вторая серия сериала "Врата", в базе фильмов здесь есть!

о как.. странно!
я тоже качаю оттуда - вроде всё без проблем шло..
__________________
Где купить WD TV: Live Streaming
Написано:  24 Ноя 2010 08:25   Отредактировано: joda
Цитата:
В альтернативной прошивке можно перегрузить и с помощью ПДУ.

Прошивка ext3-boot от Zorander. Каким макаром полный reboot пультом сделать? Спасибо GoodLive так же возникали проблемы с play некоторых mkv файлов. Использование mkvmerge v4.0.0 полностью решило проблему.
Написано:  26 Янв 2011 07:52   Отредактировано: Wesker
Здравствуйте плеир стал как то странно воспроизводить видео сначала просто чёрный экран а потом только минуты через 2 гдето воспроизводит что может быть прошивка стояла B_RAD 1.02.21 откатился на оф прошивку 1,04,17 не помогло что может быть подскажите
Написано:  27 Янв 2011 00:46
Цитата:
откатился на оф прошивку 1,04,17

Wesker, судя по номеру прошивки у вас медиаплеер не первого поколения (Gen1).
__________________
Написано:  18 Апр 2011 11:11
Спасибо за совет, попробую. таже фигня.

Поделитесь со своими друзьями в соцсетях:

WDTV Forum / Форум про WD TV Gen1 / Опыт эксплуатации / Не воспроизводит ни один файл