Неофициальный клуб пользователей HD видео плеера WD TV


»Юзер: »Пароль:   Запомнить? 
Написано:  12 Сен 2010 17:55
Здравствуте!
Имеется 11 частей Планеты
Увы на WD Gen1 все они рассыпаются на квадратике, хотя с ноута идут нормально. Прошивка родная никогда не мянял, и не хотелось бы. На WD Gen2 у знакомого вроде пошло без проблем.
Как то лечится?

General
Complete name                    : F:\HD\Planeta.Zemlya.(11.chastey.iz.11).2006.x264.HDDVDRip.(1080p)\Planeta.Zemlya.(01.chast.iz.11).Ot.polysa.do.polysa.mkv
Format                           : Matroska
File size                        : 4.27 GiB
Duration                         : 51mn 5s
Overall bit rate                 : 12.0 Mbps
Encoded date                     : UTC 2010-03-01 20:26:14
Writing application              : mkvmerge v2.3.0 ('Freak U') built on Sep  8 2008 18:32:16
Writing library                  : libebml v0.7.7 + libmatroska v0.8.1
Cover                            : Yes / Yes

Video
ID                               : 1
Format                           : AVC
Format/Info                      : Advanced Video Codec
Format profile                   : High@L5.1
Format settings, CABAC           : Yes
Format settings, ReFrames        : 16 frames
Muxing mode                      : Container profile=Unknown@5.1
Codec ID                         : V_MPEG4/ISO/AVC
Duration                         : 51mn 2s
Bit rate                         : 11.3 Mbps
Width                            : 1 920 pixels
Height                           : 1 080 pixels
Display aspect ratio             : 16/9
Frame rate                       : 23.976 fps
Resolution                       : 24 bits
Colorimetry                      : 4:2:0
Scan type                        : Progressive
Bits/(Pixel*Frame)               : 0.227
Stream size                      : 4.02 GiB (94%)
Title                            : Planeta.zemlya.(01.chast.iz.11).Ot.polysa.do.polysa.2006.x264.HDDVDRip.(1080p)
Writing library                  : x264 core 55 svn-655
Encoding settings                : cabac=1 / ref=16 / deblock=1:-2:-1 / analyse=0x3:0x133 / me=umh / subme=7 / brdo=1 / mixed_ref=1 / me_range=16 / chroma_me=1 / trellis=2 / 8x8dct=1 / cqm=0 / deadzone=21,11 / chroma_qp_offset=0 / threads=2 / nr=0 / decimate=0 / mbaff=0 / bframes=3 / b_pyramid=1 / b_adapt=1 / b_bias=0 / direct=3 / wpredb=1 / bime=1 / keyint=250 / keyint_min=25 / scenecut=40(pre) / rc=2pass / bitrate=11305 / ratetol=1.5 / rceq='blurCplx^(1-qComp)' / qcomp=0.60 / qpmin=10 / qpmax=51 / qpstep=4 / cplxblur=20.0 / qblur=0.5 / ip_ratio=1.40 / pb_ratio=1.30

Audio
ID                               : 2
Format                           : AC-3
Format/Info                      : Audio Coding 3
Codec ID                         : A_AC3
Duration                         : 51mn 5s
Bit rate mode                    : Constant
Bit rate                         : 448 Kbps
Channel(s)                       : 6 channels
Channel positions                : Front: L C R, Surround: L R, LFE
Sampling rate                    : 48.0 KHz
Stream size                      : 164 MiB (4%)
Title                            : авторский (Николай Дроздов)
Language                         : Russian

Text #1
ID                               : 3
Format                           : UTF-8
Codec ID                         : S_TEXT/UTF8
Codec ID/Info                    : UTF-8 Plain Text
Language                         : Russian

Text #2
ID                               : 4
Format                           : ASS
Codec ID                         : S_TEXT/ASS
Codec ID/Info                    : Advanced Sub Station Alpha
Language                         : English
Написано:  12 Сен 2010 18:17
Цитата:
Format settings, ReFrames        : 16 frames

Такое недостижимо для Gen1
Написано:  12 Сен 2010 18:48
Спасибо, т.е. удалять только
Не дадите ссылочку, где водится этот фильм в 1080 и чтобы шел на Gen1
Написано:  12 Сен 2010 19:05
Цитата:
Как то лечится?


Покупкой Live или Gen2

Цитата:
Не дадите ссылочку, где водится этот фильм в 1080 и чтобы шел на Gen1


http://rutracker.org/forum/viewtopic.php?t=2215208

Вот этот должен идти. Там семпл есть проверить можно если что.
Написано:  12 Сен 2010 20:59
вот тут 720p есть, я лично проверял =)
это если full hd не критичен
http://wdhd.ru/movie.php?id=1245993456
__________________
Где купить WD TV: Live Streaming
Написано:  13 Сен 2010 20:05
Спасибо
Скачал сэмпл по первой ссылке, смущает разрешение
Width                            : 1 912 pixels
Height                           : 1 080 pixels
Это нормально?

Поделитесь со своими друзьями в соцсетях: