Неофициальный клуб пользователей HD видео плеера WD TV


»Юзер: »Пароль:   Запомнить? 
WDTV Forum / Форум про WD TV Gen2 / Опыт эксплуатации / Виснет плеер, помогает только отключение питания
Написано:  10 Сен 2010 20:21
Вот медиа инфо файла:
General
Complete name                    : D:\Fei.Volshebnoe.spasenie.2010.x264.BDRip.720p-Kinozal.TV-HD.mkv
Format                           : Matroska
File size                        : 2.39 GiB
Duration                         : 1h 16mn
Overall bit rate                 : 4 474 Kbps
Encoded date                     : UTC 2010-09-09 16:41:26
Writing application              : mkvmerge v4.3.0 ('Escape from the Island' сборка от Sep  5 2010 10:30:51
Writing library                  : libebml v1.0.0 + libmatroska v1.0.0

Video
ID                               : 1
Format                           : AVC
Format/Info                      : Advanced Video Codec
Format profile                   : High@L4.1
Format settings, CABAC           : Yes
Format settings, ReFrames        : 5 frames
Muxing mode                      : Container profile=Unknown@4.1
Codec ID                         : V_MPEG4/ISO/AVC
Duration                         : 1h 16mn
Bit rate                         : 2 583 Kbps
Width                            : 1 280 pixels
Height                           : 720 pixels
Display aspect ratio             : 16:9
Frame rate                       : 23.976 fps
Color space                      : YUV
Chroma subsampling               : 4:2:0
Bit depth                        : 8 bits
Scan type                        : Progressive
Bits/(Pixel*Frame)               : 0.117
Stream size                      : 1.33 GiB (56%)
Writing library                  : x264 core 104 r1703 cd21d05
Encoding settings                : cabac=1 / ref=5 / deblock=1:0:0 / analyse=0x3:0x133 / me=umh / subme=8 / psy=1 / psy_rd=1.00:0.00 / mixed_ref=1 / me_range=16 / chroma_me=1 / trellis=1 / 8x8dct=1 / cqm=0 / deadzone=21,11 / fast_pskip=0 / chroma_qp_offset=-2 / threads=18 / sliced_threads=0 / nr=0 / decimate=1 / interlaced=0 / constrained_intra=0 / bframes=3 / b_pyramid=2 / b_adapt=1 / b_bias=0 / direct=1 / weightb=1 / open_gop=0 / weightp=2 / keyint=240 / keyint_min=24 / scenecut=40 / intra_refresh=0 / rc_lookahead=40 / rc=2pass / mbtree=1 / bitrate=2583 / ratetol=1.0 / qcomp=0.60 / qpmin=10 / qpmax=51 / qpstep=4 / cplxblur=20.0 / qblur=0.5 / ip_ratio=1.40 / aq=1:1.00

Audio #1
ID                               : 2
Format                           : AC-3
Format/Info                      : Audio Coding 3
Mode extension                   : CM (complete main)
Codec ID                         : A_AC3
Duration                         : 1h 16mn
Bit rate mode                    : Constant
Bit rate                         : 384 Kbps
Channel(s)                       : 6 channels
Channel positions                : Front: L C R, Side: L R, LFE
Sampling rate                    : 48.0 KHz
Stream size                      : 210 MiB (9%)
Title                            : Дубляж
Language                         : Russian

Audio #2
ID                               : 3
Format                           : DTS
Format/Info                      : Digital Theater Systems
Codec ID                         : A_DTS
Duration                         : 1h 16mn
Bit rate mode                    : Constant
Bit rate                         : 1 510 Kbps
Channel(s)                       : 6 channels
Channel positions                : Front: L C R, Side: L R, LFE
Sampling rate                    : 48.0 KHz
Bit depth                        : 24 bits
Stream size                      : 826 MiB (34%)
Title                            : Английский
Написано:  10 Сен 2010 20:48
читайте фак все давно уже есть Важно! Обратите внимание, что в последних версиях набора MKV Toolnix (выше 4.0.0) библиотека libmatroska обновилась до версии 1.0. На текущий момент она несовместима с WD TV, если контейнер собирается с помощью MKVtoolnix выше 4.0.0 - возможны проблемы с воспроизведением видео и звука. Во избежание проблем - используйте версию 4.0.0 и ниже (скачать их можно по этой ссылке). Мы следим за развитием ситуации, но пока что дела обстоят именно так! http://wdhd.ru/faq.php?q_id=13
__________________
Sharp LC-32X20RU + WDTV Gen2 + WDTV Live (если понравилось 41001352107159 яндекс)
Написано:  10 Сен 2010 21:09
Спасибо!!! Перегнал в версию 4.0.0 и все заработало.
Написано:  12 Сен 2010 10:11
В MKV Toolnix (выше 4.0.0)Надо просто в Extra Option для каждого трека выставить значение none
Написано:  12 Сен 2010 10:19
и каким образом если рипы уже сделаны и скачаны,легче взять версию 4.0 и без замарочек в ней народу переделать,насчет этого пункта легче постоянно твердить рипперам
__________________
Sharp LC-32X20RU + WDTV Gen2 + WDTV Live (если понравилось 41001352107159 яндекс)

Поделитесь со своими друзьями в соцсетях:

WDTV Forum / Форум про WD TV Gen2 / Опыт эксплуатации / Виснет плеер, помогает только отключение питания