Неофициальный клуб пользователей HD видео плеера WD TV


»Юзер: »Пароль:   Запомнить? 
WDTV Forum / Форум про HD фильмы / Эти фильмы не идут / Не воспроизводится видео...
Написано:  25 Авг 2010 06:00
Всем здрасти!
-------------
Скачал коллекцию пиксаровских мультов...
Некоторые воспроизводятся нормально, а на некоторых наблюдается рассинхронизация между аудио и видео.
Файлы .mkv (codec:H.264)

Параметры нормально воспроизводимого файла:
Format                           : Matroska
File size                        : 360 MiB
Duration                         : 7mn 35s
Overall bit rate                 : 6 636 Kbps
Encoded date                     : UTC 2008-11-13 18:09:30
Writing application              : mkvmerge v2.3.0 ('Freak U') built on Sep  8 2008 18:32:16
Writing library                  : libebml v0.7.7 + libmatroska v0.8.1

Video
ID                               : 1
Format                           : AVC
Format/Info                      : Advanced Video Codec
Format profile                   : High@L5.1
Format settings, CABAC           : Yes
Format settings, ReFrames        : 5 frames
Muxing mode                      : Container profile=Unknown@5.1
Codec ID                         : V_MPEG4/ISO/AVC
Duration                         : 7mn 34s
Bit rate                         : 5 864 Kbps
Nominal bit rate                 : 6 000 Kbps
Width                            : 1 920 pixels
Height                           : 804 pixels
Display aspect ratio             : 2.35:1
Frame rate                       : 23.976 fps
Resolution                       : 24 bits
Colorimetry                      : 4:2:0
Scan type                        : Progressive
Bits/(Pixel*Frame)               : 0.158
Stream size                      : 318 MiB (88%)
Title                            : x264
Writing library                  : x264 core 65 r1024M 2652abe
Encoding settings                : cabac=1 / ref=5 / deblock=1:-3:-3 / analyse=0x3:0x113 / me=umh / subme=7 / psy_rd=1.0:0.0 / mixed_ref=1 / me_range=32 / chroma_me=1 / trellis=2 / 8x8dct=1 / cqm=0 / deadzone=21,11 / chroma_qp_offset=-2 / threads=3 / nr=0 / decimate=0 / mbaff=0 / bframes=3 / b_pyramid=1 / b_adapt=1 / b_bias=0 / direct=3 / wpredb=1 / keyint=250 / keyint_min=25 / scenecut=40(pre) / rc=2pass / bitrate=6000 / ratetol=1.0 / qcomp=0.60 / qpmin=10 / qpmax=51 / qpstep=4 / cplxblur=20.0 / qblur=0.5 / ip_ratio=1.40 / pb_ratio=1.30 / aq=1:1.00
Language                         : English

Audio
ID                               : 2
Format                           : AC-3
Format/Info                      : Audio Coding 3
Codec ID                         : A_AC3
Duration                         : 7mn 35s
Bit rate mode                    : Constant
Bit rate                         : 640 Kbps
Channel(s)                       : 6 channels
Channel positions                : Front: L C R, Surround: L R, LFE
Sampling rate                    : 48.0 KHz
Stream size                      : 34.7 MiB (10%)
Title                            : AC3
Language                         : English

Параметры неккоректно воспроизводимого файла:
Format                           : Matroska
File size                        : 231 MiB
Duration                         : 4mn 14s
Overall bit rate                 : 7 622 Kbps
Encoded date                     : UTC 2008-06-06 17:13:47
Writing application              : mkvmerge v2.2.0 ('Turn It On Again') built on Mar  4 2008 12:58:26
Writing library                  : libebml v0.7.7 + libmatroska v0.8.1

Video
ID                               : 1
Format                           : AVC
Format/Info                      : Advanced Video Codec
Format profile                   : High@L5.1
Format settings, CABAC           : Yes
Format settings, ReFrames        : 5 frames
Muxing mode                      : Container profile=Unknown@5.1
Codec ID                         : V_MPEG4/ISO/AVC
Duration                         : 4mn 14s
Bit rate                         : 6 830 Kbps
Width                            : 1 920 pixels
Height                           : 1 040 pixels
Display aspect ratio             : 16:9
Frame rate                       : 23.976 fps
Resolution                       : 24 bits
Colorimetry                      : 4:2:0
Scan type                        : Progressive
Bits/(Pixel*Frame)               : 0.143
Stream size                      : 207 MiB (90%)
Language                         : English

Audio
ID                               : 2
Format                           : AC-3
Format/Info                      : Audio Coding 3
Codec ID                         : A_AC3
Duration                         : 4mn 14s
Bit rate mode                    : Constant
Bit rate                         : 640 Kbps
Channel(s)                       : 6 channels
Channel positions                : Front: L C R, Surround: L R, LFE
Sampling rate                    : 48.0 KHz
Stream size                      : 19.4 MiB (8%)
Language                         : English

Неужели надо перекодировать файлы...

Плеер подключен через HDMI интерфейс если это имеет значение...
Написано:  25 Авг 2010 08:02
попробуй в тсмуксере переделать в ts
__________________
Sharp LC-32X20RU + WDTV Gen2 + WDTV Live (если понравилось 41001352107159 яндекс)
Написано:  26 Авг 2010 02:58
Алукард, я в компресии видео новичок, поэтому если можно чуть более подробно?))

И еще.. В соседней теме я упоминал что установил себе Домашний медиа-сервер, там есть такое понятие как транскодирование, как я понял это для того что бы приставка читала исходный файл в другом формате...
Там есть транскодирование в ТС... Оно мне поможет??
Написано:  26 Авг 2010 07:33
не тут лучше прогой сделать занимает пару минут http://www.smlabs.net/tsmuxer_en.html
__________________
Sharp LC-32X20RU + WDTV Gen2 + WDTV Live (если понравилось 41001352107159 яндекс)

Поделитесь со своими друзьями в соцсетях:

WDTV Forum / Форум про HD фильмы / Эти фильмы не идут / Не воспроизводится видео...