Неофициальный клуб пользователей HD видео плеера WD TV


»Юзер: »Пароль:   Запомнить? 
Написано:  04 Авг 2010 19:27
включил как обычно плеер, всё нормально запустилось, появилось меню и список фильмов. Нажав на воспроизведение фильма появился черный экран и все тишина, причем на любом фильме - короче не хочет воспроизводить. Были проделаны мной такие действия:
выключал питание полностью, удалял папку wdtv, стояла прошивка 1.02.07 поставил 1.03.01 не помогает.
Что делать?
Написано:  04 Авг 2010 20:00   Отредактировано: GoodLive
Выдерни и подожди, пусть остынет чуток.
__________________
Samsung LE-40 B 530 P7W + WDTV Gen1
Написано:  04 Авг 2010 20:31
да вроде как ждал. Остыл был холодный.
я вроде как проблему узрел. щас докопаюсь доистины и отпишусь.
Написано:  04 Авг 2010 21:00
Вообщем так.поставил тут новую русскоязычную прогу mkvmerge. прогнал через неё фильм (удалил не нужные дорожки). скинул на жестяк, и тут проблемы начались.
после запуска ентого фильма не воспроизводилось не чего, пока шнур не передернул.другие файлы стали запускаться без проблем. потом прогнал этот же фильм через старую прогу которая у меня раньше стояла и все стало запускаться. вот инфо того файла который доставил неудобства:
General
Complete name                    : G:\HD_video\Zhizn.za.granju.2009.BDRip(720p).mkv
Format                           : Matroska
File size                        : 4.23 GiB
Duration                         : 1h 42mn
Overall bit rate                 : 5 892 Kbps
Movie name                       : --SCHUMAHER--
Encoded date                     : UTC 2010-08-04 14:57:41
Writing application              : mkvmerge v4.2.0 ('No Talking') сборка от Jul 28 2010 18:38:23
Writing library                  : libebml v1.0.0 + libmatroska v1.0.0

Video
ID                               : 1
Format                           : AVC
Format/Info                      : Advanced Video Codec
Format profile                   : High@L4.1
Format settings, CABAC           : Yes
Format settings, ReFrames        : 5 frames
Muxing mode                      : Container profile=Unknown@4.1
Codec ID                         : V_MPEG4/ISO/AVC
Duration                         : 1h 42mn
Bit rate                         : 5 327 Kbps
Nominal bit rate                 : 5 444 Kbps
Width                            : 1 280 pixels
Height                           : 536 pixels
Display aspect ratio             : 2.35:1
Frame rate                       : 23.976 fps
Resolution                       : 24 bits
Colorimetry                      : 4:2:0
Scan type                        : Progressive
Bits/(Pixel*Frame)               : 0.324
Stream size                      : 3.82 GiB (90%)
Writing library                  : x264 core 104 r1688 0b36c6d
Encoding settings                : cabac=1 / ref=5 / deblock=1:0:0 / analyse=0x3:0x133 / me=umh / subme=8 / psy=1 / psy_rd=1.00:0.00 / mixed_ref=1 / me_range=16 / chroma_me=1 / trellis=1 / 8x8dct=1 / cqm=0 / deadzone=21,11 / fast_pskip=0 / chroma_qp_offset=-2 / threads=18 / sliced_threads=0 / nr=0 / decimate=1 / interlaced=0 / constrained_intra=0 / bframes=3 / b_pyramid=2 / b_adapt=1 / b_bias=0 / direct=1 / weightb=1 / open_gop=0 / weightp=2 / keyint=240 / keyint_min=24 / scenecut=40 / intra_refresh=0 / rc_lookahead=40 / rc=2pass / mbtree=1 / bitrate=5444 / ratetol=1.0 / qcomp=0.60 / qpmin=10 / qpmax=51 / qpstep=4 / cplxblur=20.0 / qblur=0.5 / ip_ratio=1.40 / aq=1:1.00

Audio
ID                               : 2
Format                           : AC-3
Format/Info                      : Audio Coding 3
Codec ID                         : A_AC3
Duration                         : 1h 42mn
Bit rate mode                    : Constant
Bit rate                         : 448 Kbps
Channel(s)                       : 6 channels
Channel positions                : Front: L C R, Surround: L R, LFE
Sampling rate                    : 48.0 KHz
Stream size                      : 330 MiB (8%)
Title                            : AC3_6ch_448kbps_MVO
Language                         : Russian
Написано:  04 Авг 2010 21:14
ну и зря поставил теперь ищи версию 4.00 иначе звука так и не будет
__________________
Sharp LC-32X20RU + WDTV Gen2 + WDTV Live (если понравилось 41001352107159 яндекс)
Написано:  04 Авг 2010 21:38
да нет всё нормально. у меня оставалась версия 2.6.0 вот её обратно и поставил и теперь проблем нет.
Написано:  04 Авг 2010 22:37   Отредактировано: GoodLive
Короче начинается полная попа с этой прогой. Люди всё чаще начали впираться с ней. Надо большими буквами в ФАКЕ написать, чтоб народ пользовал правильную версию.
P.S. Да, к стати, именно пропадание изображения начинается с юзанья версии 4.20.
__________________
Samsung LE-40 B 530 P7W + WDTV Gen1
Написано:  05 Авг 2010 02:31   Отредактировано: admin
Добавил параграф про MKVtoonix выше 4.0.0 в FAQ
http://wdhd.ru/faq.php?q_id=13

Цитата:
Обратите внимание, что в последних версиях набора MKV Toolnix (выше 4.0.0) библиотека libmatroska обновилась до версии 1.0. На текущий момент она несовместима с WD TV, если контейнер собирается с помощью MKVtoolnix выше 4.0.0 - возможны проблемы с воспроизведением видео и звука. Во избежание проблем - используйте версию 4.0.0 и ниже (скачать их можно по этой ссылке). Мы следим за развитием ситуации, но пока что дела обстоят именно так!

Поделитесь со своими друзьями в соцсетях: