Неофициальный клуб пользователей HD видео плеера WD TV


»Юзер: »Пароль:   Запомнить? 
WDTV Forum / Форум про HD фильмы / Эти фильмы играются / Смертельная гонка / Death Race (2008) Blu-ray Remux
Написано:  28 Апр 2009 00:34   Отредактировано: NetSearcher
Смертельная гонка / Death Race ( 2008 ) Blu-ray Remux

Cтатус идёт без глюков.

Дорожка Звук #3: Английский (Оригинал), DTS-HD MА, 6ch (L, C, R, Ls, Rs +LFE), ~4200 кб/с  в прошивке 1.02.07 играется, но WDTV подвешивается спустя некоторое время.




Информация о фильме
Название: Смертельная гонка
Оригинальное название: Death Race
Год выхода: 2008
Жанр: Фантастика, боевик, триллер
Режисер: Пол В.С. Андерсон
В ролях: Джейсон Стэтхэм, Джоан Аллен, Йен МакШейн, Тайриз Гибсон, Натали Мартинез, Макс Райан, Джейсон Кларк, Фредерик Колер, Джейкоб Варгас, Джастин Мэдер.

О фильме:
Трехкратный чемпион-гонщик Дженсен Эймс посажен в тюрьму за убийство, которого не совершал. Вместо того, чтобы выпустить его на свободу, тюремщики заставляют его вместе с самыми отъявленными преступниками участвовать в кровавом состязании. Оказавшись за рулем чудовищного автомобиля, оборудованного автоматами, огнеметами и гранатометами, этот отчаянный человек разрушит все на своем пути, чтобы выиграть самую зрелищную гонку на выживание на Земле.

IMDb 6.7/10 (15,573 votes)

Выпущено: США | Wagner Productions
Продолжительность: 01:50:35

Файл
Качество: Blu-ray Remux
Видео: Н264, 23.976 fps, 1920х1080, ~25055 кб/с
Звук #1: Русский (Дублированный), DTS, 6ch (L, C, R, Ls, Rs +LFE), 768 кб/с
Звук #2: Английский (Оригинал), DTS, 6ch (L, C, R, Ls, Rs +LFE), 1536 кб/с
Звук #3: Английский (Оригинал), DTS-HD MА, 6ch (L, C, R, Ls, Rs +LFE), ~4200 кб/с
Звук #4: Английский (Оригинал), AC3, 2ch (L,R), 192 кб/с Commentary

http://tracker.0day.kiev.ua/details.php?id=37189

mediainfo:

General
ID                               : 1
Complete name                    : N:\HDTV FILMS\Smertelnaya.gonka.2008\Death.Race.Unrated.2008.1080p.Remux.AVC.ts
Format                           : MPEG-TS
File size                        : 25.4 GiB
Duration                         : 1h 50mn
Overall bit rate                 : 32.9 Mbps
Maximum Overall bit rate         : 35.5 Mbps

Video
ID                               : 4113 (0x1011)
Menu ID                          : 1 (0x1)
Format                           : AVC
Format/Info                      : Advanced Video Codec
Format profile                   : High@L4.1
Format settings, CABAC           : Yes
Format settings, ReFrames        : 4 frames
Duration                         : 1h 50mn
Width                            : 1 920 pixels
Height                           : 1 080 pixels
Display aspect ratio             : 16/9
Frame rate                       : 23.976 fps
Resolution                       : 24 bits
Colorimetry                      : 4:2:0
Scan type                        : Progressive

Audio #1
ID                               : 4352 (0x1100)
Menu ID                          : 1 (0x1)
Format                           : DTS
Format/Info                      : Digital Theater Systems
Duration                         : 1h 50mn
Bit rate mode                    : Constant
Bit rate                         : 768 Kbps
Channel(s)                       : 6 channels
Channel positions                : Front: L C R, Surround: L R, LFE
Sampling rate                    : 48.0 KHz
Resolution                       : 24 bits
Stream size                      : 608 MiB (2%)
Language                         : Russian

Audio #2
ID                               : 4353 (0x1101)
Menu ID                          : 1 (0x1)
Format                           : DTS
Format/Info                      : Digital Theater Systems
Duration                         : 1h 50mn
Bit rate mode                    : Constant
Bit rate                         : 1 536 Kbps
Channel(s)                       : 6 channels
Channel positions                : Front: L C R, Surround: L R, LFE
Sampling rate                    : 48.0 KHz
Resolution                       : 24 bits
Stream size                      : 1.19 GiB (5%)
Language                         : English

Audio #3
ID                               : 4354 (0x1102)
Menu ID                          : 1 (0x1)
Format                           : DTS
Format/Info                      : Digital Theater Systems
Format profile                   : MA
Duration                         : 1h 50mn
Bit rate mode                    : Variable
Channel(s)                       : 6 channels
Channel positions                : Front: L C R, Surround: L R, LFE
Sampling rate                    : 48.0 KHz
Resolution                       : 24 bits
Language                         : English

Audio #4
ID                               : 4355 (0x1103)
Menu ID                          : 1 (0x1)
Format                           : AC-3
Format/Info                      : Audio Coding 3
Format profile                   : Dolby Digital
Duration                         : 1h 50mn
Bit rate mode                    : Constant
Bit rate                         : 192 Kbps
Channel(s)                       : 2 channels
Channel positions                : L R
Sampling rate                    : 48.0 KHz
Stream size                      : 152 MiB (1%)
Language                         : English
__________________
REMUX FOREVER

Watching HD on: LCD Sharp 46XL2E, Yamaha RX-V563, Yamaha NS-777, Yamaha NS-333, Yamaha NS-444, Yamaha YST-SW215, WD TV, My Book EE 1 TB (3), HP SE 1.5 ТБ (1)|| DVD watching on: Yamaha DVD-S663|| DVD-Audio, SACD: Onkyo DV-SP504E
Написано:  02 Май 2009 12:53
touch, а touch размести фильмецы в базу
__________________
REMUX FOREVER

Watching HD on: LCD Sharp 46XL2E, Yamaha RX-V563, Yamaha NS-777, Yamaha NS-333, Yamaha NS-444, Yamaha YST-SW215, WD TV, My Book EE 1 TB (3), HP SE 1.5 ТБ (1)|| DVD watching on: Yamaha DVD-S663|| DVD-Audio, SACD: Onkyo DV-SP504E

Поделитесь со своими друзьями в соцсетях:

WDTV Forum / Форум про HD фильмы / Эти фильмы играются / Смертельная гонка / Death Race (2008) Blu-ray Remux