Неофициальный клуб пользователей HD видео плеера WD TV


»Юзер: »Пароль:   Запомнить? 
WDTV Forum / Форум про HD фильмы / Эти фильмы играются / Борн. Трилогия / The Bourne Trilogy (2002, 2004, 2007) 1080p HD DVD remux
Написано:  27 Апр 2009 00:44   Отредактировано: NetSearcher
Борн. Трилогия / The Bourne Trilogy (2002, 2004, 2007) 1080p HD DVD remux

СТАТУС ИДЁТ БЕЗ ГЛЮКОВ.

Есть 1 только ньюанс, дорожка:

Звук #3: Английский (Оригинал), FLAC, 6ch (L, C, R, Ls, Rs +LFE), 2133 кб/с

в 3 части Ультиматум Борна при переключении скидывайте громкость - вместо неё высокочастный треск и шум, може повредить как слух так и колонки.

Такое происходит со всеми дорожками 6 каналов FLAC на WDHD в прошивках начиная с версии 1.02.XX.




Информация о фильме
Название: Идентификация Борна
Оригинальное название: The Bourne Identity
Год выхода: 2002
Жанр: Боевик, Детектив, Триллер
Режисер: Даг Лайман
В ролях: Мэтт Дэймон, Франка Потенте, Крис Купер, Клайв Оуэн, Брайан Кокс, Джулия Стайлс

О фильме:
Команда итальянского рыболовецкого судна находит в водах Средиземного моря тело мужчины. У него два пулевых ранения в спине и имплантированный в бедро микрофильм, помеченный номером швейцарского банка. Когда незнакомец приходит в себя, оказывается, что он не помнит кто он, и что с ним случилось, однако он может говорить на нескольких языках и обладает другими необычными способностями. Получив в Цюрихе деньги с указанного банковского счета, он узнает свое имя Джейсон Борн. Но настоящее это его имя или нет? Пытаясь восстановить свое прошлое, он находит свой адрес в Париже, но вместе с этим понимает, что отслеживается убийцей. Борн уговаривает немецкую студентку Мэри отвезти его в Париж, чтобы выяснить все о своем прошлом и понять, кто хочет его убить...

IMDB 7.7/10 (95,600 голосов)

Выпущено: Германия-США-Чехия, Hypnotic / Kalima Productions GmbH & Co. KG / Stillking Films
Продолжительность: 01:58:16

Файл
Качество: HD DVD Remux
Видео: VC-1,  NTSC 23.976, 1920x1080 (16:9), 18636 кб/с
Звук #1: Русский (Дублированный), AC3, 6ch (L, C, R, Ls, Rs +LFE), 384 кб/с
Звук #2: Русский (Профессиональный (один голос)), AC3, 6ch (L, C, R, Ls, Rs +LFE), 384 кб/с - Гаврилов
Звук #3: Английский (Оригинал), DTS, 6ch (L, C, R, Ls, Rs +LFE), 1536 кб/с
Звук #4: Английский (Оригинал), AC3, 2ch (L,R), 384 кб/с - Комментарии
Субтитры: Русский, Английский



Информация о фильме
Название: Превосходство Борна
Оригинальное название: The Bourne Supremacy
Год выхода: 2004
Жанр: Боевик, Детектив, Триллер
Режисер: Пол Гринграсс
В ролях: Мэтт Дэймон, Франка Потенте, Джоан Аллен, Томас Арана, Брайан Кокс, Том Гэллоп

О фильме:
Переживший тяжелый приступ амнезии, тайный агент Джейсон Борн фактически становится призраком, несуществующей субстанцией, о существовании которой знает лишь ограниченный круг посвященных. Настоящее имя Борна скрыто за давностью лет, и этот факт становится первым на пути сомнения спецслужб относительно его участия в убийстве китайского посла. Но что делать, если все улики указывают на человека, который скрывается под кодовым именем Борн?

IMDB 7.8/10 (81,025 голосов)

Выпущено: Германия-США, Hypnotic / Ludlum Entertainment / Motion Picture THETA Produktionsgesellschaft mbH & Co. KG
Продолжительность: 01:48:26

Файл
Качество: HD DVD Remux
Видео: VC-1, NTSC 23.976, 1920x1080 (16:9), 17305 кб/с
Звук #1: Русский (Дублированный), AC3, 6ch (L, C, R, Ls, Rs +LFE), 384 кб/с
Звук #2: Русский (Профессиональный (один голос)), AC3, 6ch (L, C, R, Ls, Rs +LFE), 384 кб/с - Гаврилов
Звук #3: Английский (Оригинал), DTS, 6ch (L, C, R, Ls, Rs +LFE), 1536 кб/с
Звук #4: Английский (Оригинал), AC3, 2ch (L,R), 384 кб/с - Комментарии
Субтитры: Русский, Английский



Информация о фильме
Название: Ультиматум Борна
Оригинальное название: The Bourne Ultimatum
Год выхода: 2007
Жанр: Боевик, Детектив, Триллер
Режисер: Пол Гринграсс
В ролях: Мэтт Дэймон, Джулия Стайлз, Дэвид Стрэтэйрн, Скотт Гленн, Пэдди Консидайн, Эдгар Рамирез, Альберт Финни, Джоан Аллен, Том Галлоп, Кори Джонсон

О фильме:
Он хотел одного - исчезнуть. Вместо этого за Борном теперь охотятся люди, которые сделали его таким, какой он есть. Он потерял память и человека, которого он любил. Но его не удается сдержать даже новому поколению профессиональных убийц. У него только одна цель: вернуться к началу и узнать кем он был, Джейсон Борн. Он мечется от Москвы к Парижу, через Мадрид и Лондон в Танжер и Нью-Йорк, пытаясь раскрыть последние загадки своего прошлого, в то время как правительственные агенты и Интерпол пытаются помешать ему восстановить всю картину до конца.

IMDB 8.2/10 (106,365 голосов)

Выпущено: Германия-США, Hypnotic / Ludlum Entertainment / Motion Picture
Продолжительность: 01:55:18

Файл
Качество: HD DVD Remux
Видео: VC-1, NTSC 23.976, 1920x1080 (16:9), 18842 кб/с
Звук #1: Русский (Дублированный), DTS, 6ch (L, C, R, Ls, Rs +LFE), 768 кб/с
Звук #2: Русский (Профессиональный (многоголосый)), AC3, 6ch (L, C, R, Ls, Rs +LFE), 384 кб/с - Гланц
Звук #3: Английский (Оригинал), FLAC, 6ch (L, C, R, Ls, Rs +LFE), 2133 кб/с
Звук #4: Английский (Оригинал), AC3, 2ch (L,R), 384 кб/с - Комментарии
Субтитры: Русский, Английский

ССЫЛКО: http://tracker.0day.kiev.ua/details.php?id=38547
__________________
REMUX FOREVER

Watching HD on: LCD Sharp 46XL2E, Yamaha RX-V563, Yamaha NS-777, Yamaha NS-333, Yamaha NS-444, Yamaha YST-SW215, WD TV, My Book EE 1 TB (3), HP SE 1.5 ТБ (1)|| DVD watching on: Yamaha DVD-S663|| DVD-Audio, SACD: Onkyo DV-SP504E
Написано:  27 Апр 2009 00:51
1 часть
Bourne.Identity  mediainfo:

General
Complete name                    : N:\hd films\The.Bourne.Trilogy\The.Bourne.Identity.2002.HDDVD.mkv
Format                           : Matroska
File size                        : 18.0 GiB
Duration                         : 1h 58mn
Overall bit rate                 : 21.8 Mbps
Encoded date                     : UTC 2008-06-15 04:52:06
Writing application              : mkvmerge v2.2.0 ('Turn It On Again' built on Mar 10 2008 10:55:12
Writing library                  : libebml v0.7.7 + libmatroska v0.8.1

Video
ID                               : 1
Format                           : VC-1
Format profile                   : AP@L3
Codec ID                         : WVC1
Codec ID/Hint                    : Microsoft
Duration                         : 1h 58mn
Bit rate                         : 18.7 Mbps
Width                            : 1 920 pixels
Height                           : 1 080 pixels
Display aspect ratio             : 16/9
Frame rate                       : 23.976 fps
Original frame rate              : 29.970 fps
Resolution                       :  bit0
Colorimetry                      : 4:2:0
Scan type                        : Progressive
Scan order                       : Top Field First
Bits/(Pixel*Frame)               : 0.375
Stream size                      : 15.4 GiB (86%)
Language                         : English

Audio #1
ID                               : 2
Format                           : AC-3
Format/Info                      : Audio Coding 3
Codec ID                         : A_AC3
Duration                         : 1h 58mn
Bit rate mode                    : Constant
Bit rate                         : 384 Kbps
Channel(s)                       : 6 channels
Channel positions                : Front: L C R, Surround: L R, LFE
Sampling rate                    : 48.0 KHz
Stream size                      : 325 MiB (2%)
Title                            : DD 5.1 @ 384kbps (Dubbed)
Language                         : Russian

Audio #2
ID                               : 3
Format                           : AC-3
Format/Info                      : Audio Coding 3
Codec ID                         : A_AC3
Duration                         : 1h 58mn
Bit rate mode                    : Constant
Bit rate                         : 384 Kbps
Channel(s)                       : 6 channels
Channel positions                : Front: L C R, Surround: L R, LFE
Sampling rate                    : 48.0 KHz
Stream size                      : 325 MiB (2%)
Title                            : DD 5.1 @ 384kbps (Gavrilov)
Language                         : Russian

Audio #3
ID                               : 4
Format                           : DTS
Format/Info                      : Digital Theater Systems
Codec ID                         : A_DTS
Duration                         : 1h 58mn
Bit rate mode                    : Constant
Bit rate                         : 1 536 Kbps
Channel(s)                       : 6 channels
Channel positions                : Front: L C R, Surround: L R, LFE
Sampling rate                    : 48.0 KHz
Resolution                       : 24 bits
Stream size                      : 1.27 GiB (7%)
Title                            : DTS 5.1 @ 1536kbps
Language                         : English

Audio #4
ID                               : 5
Format                           : AC-3
Format/Info                      : Audio Coding 3
Codec ID                         : A_AC3
Duration                         : 1h 58mn
Bit rate mode                    : Constant
Bit rate                         : 384 Kbps
Channel(s)                       : 2 channels
Channel positions                : L R
Sampling rate                    : 48.0 KHz
Stream size                      : 325 MiB (2%)
Title                            : DD 2.0 @ 384kbps (Director's Commentary)
Language                         : English

Text #1
ID                               : 6
Format                           : UTF-8
Codec ID                         : S_TEXT/UTF8
Codec ID/Info                    : UTF-8 Plain Text
Title                            : Captions
Language                         : Russian

Text #2
ID                               : 7
Format                           : UTF-8
Codec ID                         : S_TEXT/UTF8
Codec ID/Info                    : UTF-8 Plain Text
Language                         : Russian

Text #3
ID                               : 8
Format                           : UTF-8
Codec ID                         : S_TEXT/UTF8
Codec ID/Info                    : UTF-8 Plain Text
Language                         : English

Menu
00:00:00.000                     : en:'Dead' Man
00:06:27.750                     : en:It's Not Coming Back
00:08:34.283                     : en:To Switzerland
00:11:37.783                     : en:The Wombosi Problem
00:13:37.500                     : en:My Name is Jason Bourne
00:19:42.083                     : en:The American Embassy
00:25:39.450                     : en:Find Jason Bourne
00:29:15.166                     : en:Marie Helena Kreutz
00:36:34.083                     : en:Home
00:43:54.083                     : en:Assassin
00:48:24.783                     : en:The Right Thing
00:51:49.083                     : en:Paris Pursuit
01:01:57.700                     : en:Mr. Kane's Hotel Bill
01:09:57.416                     : en:The Wombosi Connection
01:18:41.300                     : en:Eamon
01:23:54.950                     : en:The Killer Outside
01:31:34.616                     : en:Bourne's Game
01:38:34.250                     : en:A Malfunctioning Weapon
01:45:06.950                     : en:Forced Retirement
01:51:27.166                     : en:End Titles
====================================================
2 часть
Bourne.Supremacy mediainfo:

General
Complete name                    : N:\hd films\The.Bourne.Trilogy\The.Bourne.Supremacy.2004.HDDVD.mkv
Format                           : Matroska
File size                        : 15.3 GiB
Duration                         : 1h 48mn
Overall bit rate                 : 20.2 Mbps
Encoded date                     : UTC 2008-06-15 08:49:34
Writing application              : mkvmerge v2.2.0 ('Turn It On Again' built on Mar 10 2008 10:55:12
Writing library                  : libebml v0.7.7 + libmatroska v0.8.1

Video
ID                               : 1
Format                           : VC-1
Format profile                   : AP@L3
Codec ID                         : WVC1
Codec ID/Hint                    : Microsoft
Duration                         : 1h 48mn
Bit rate                         : 17.3 Mbps
Width                            : 1 920 pixels
Height                           : 1 080 pixels
Display aspect ratio             : 16/9
Frame rate                       : 23.976 fps
Original frame rate              : 29.970 fps
Resolution                       :  bit0
Colorimetry                      : 4:2:0
Scan type                        : Progressive
Scan order                       : Top Field First
Bits/(Pixel*Frame)               : 0.348
Stream size                      : 13.1 GiB (86%)
Language                         : English

Audio #1
ID                               : 2
Format                           : AC-3
Format/Info                      : Audio Coding 3
Codec ID                         : A_AC3
Duration                         : 1h 48mn
Bit rate mode                    : Constant
Bit rate                         : 384 Kbps
Channel(s)                       : 6 channels
Channel positions                : Front: L C R, Surround: L R, LFE
Sampling rate                    : 48.0 KHz
Stream size                      : 298 MiB (2%)
Title                            : DD 5.1 @ 384kbps (Dubbed)
Language                         : Russian

Audio #2
ID                               : 3
Format                           : AC-3
Format/Info                      : Audio Coding 3
Codec ID                         : A_AC3
Duration                         : 1h 48mn
Bit rate mode                    : Constant
Bit rate                         : 384 Kbps
Channel(s)                       : 6 channels
Channel positions                : Front: L C R, Surround: L R, LFE
Sampling rate                    : 48.0 KHz
Stream size                      : 298 MiB (2%)
Title                            : DD 5.1 @ 384kbps (Gavrilov)
Language                         : Russian

Audio #3
ID                               : 4
Format                           : DTS
Format/Info                      : Digital Theater Systems
Codec ID                         : A_DTS
Duration                         : 1h 48mn
Bit rate mode                    : Constant
Bit rate                         : 1 536 Kbps
Channel(s)                       : 6 channels
Channel positions                : Front: L C R, Surround: L R, LFE
Sampling rate                    : 48.0 KHz
Resolution                       : 24 bits
Stream size                      : 1.16 GiB (8%)
Title                            : DTS 5.1 @ 1536kbps
Language                         : English

Audio #4
ID                               : 5
Format                           : AC-3
Format/Info                      : Audio Coding 3
Codec ID                         : A_AC3
Duration                         : 1h 48mn
Bit rate mode                    : Constant
Bit rate                         : 192 Kbps
Channel(s)                       : 2 channels
Channel positions                : L R
Sampling rate                    : 48.0 KHz
Stream size                      : 149 MiB (1%)
Title                            : DD 2.0 @ 192kbps (Director's comments)
Language                         : English

Text #1
ID                               : 6
Format                           : UTF-8
Codec ID                         : S_TEXT/UTF8
Codec ID/Info                    : UTF-8 Plain Text
Title                            : Captions
Language                         : Russian

Text #2
ID                               : 7
Format                           : UTF-8
Codec ID                         : S_TEXT/UTF8
Codec ID/Info                    : UTF-8 Plain Text
Language                         : Russian

Text #3
ID                               : 8
Format                           : UTF-8
Codec ID                         : S_TEXT/UTF8
Codec ID/Info                    : UTF-8 Plain Text
Title                            : Director's comments
Language                         : Russian

Text #4
ID                               : 9
Format                           : UTF-8
Codec ID                         : S_TEXT/UTF8
Codec ID/Info                    : UTF-8 Plain Text
Language                         : English

Menu
00:00:00.000                     : en:Bits And Pieces
00:04:31.500                     : en:The Neski Files
00:09:45.200                     : en:Blown
00:15:23.416                     : en:No Choice
00:22:01.500                     : en:One Of Us
00:23:34.200                     : en:Operation Treadstone
00:29:12.283                     : en:Priority Target
00:35:12.200                     : en:The Local Contact
00:38:03.950                     : en:The Last Two
00:44:56.033                     : en:Looking For Landy
00:47:58.416                     : en:In The Crosshairs
00:52:49.250                     : en:The Alexanderplatz
00:55:23.700                     : en:Some Simple Questions
01:00:59.116                     : en:What If . . .
01:02:36.533                     : en:Room 645
01:06:48.533                     : en:On The Run
01:13:49.700                     : en:The Patriot
01:18:09.166                     : en:To Moscow
01:24:47.950                     : en:Kirill's Prey
01:27:38.116                     : eneath Chase
01:33:01.283                     : en:Into The Light
01:34:45.866                     : en:The Truth
01:40:09.333                     : en:The File On David Webb
01:41:54.916                     : en:End Titles
=====================================================
3 чать
Bourne.Ultimatum  mediainfo

General
Complete name                    : N:\hd films\The.Bourne.Trilogy\The.Bourne.Ultimatum.2007.HDDVD.mkv
Format                           : Matroska
File size                        : 17.6 GiB
Duration                         : 1h 55mn
Overall bit rate                 : 21.9 Mbps
Encoded date                     : UTC 2008-06-15 10:30:57
Writing application              : mkvmerge v2.2.0 ('Turn It On Again' built on Mar 10 2008 10:55:12
Writing library                  : libebml v0.7.7 + libmatroska v0.8.1

Video
ID                               : 1
Format                           : VC-1
Format profile                   : AP@L3
Codec ID                         : WVC1
Codec ID/Hint                    : Microsoft
Duration                         : 1h 55mn
Width                            : 1 920 pixels
Height                           : 1 080 pixels
Display aspect ratio             : 16/9
Frame rate                       : 23.976 fps
Original frame rate              : 29.970 fps
Resolution                       :  bit0
Colorimetry                      : 4:2:0
Scan type                        : Progressive
Scan order                       : Top Field First
Language                         : English

Audio #1
ID                               : 2
Format                           : DTS
Format/Info                      : Digital Theater Systems
Codec ID                         : A_DTS
Duration                         : 1h 55mn
Bit rate mode                    : Constant
Bit rate                         : 768 Kbps
Channel(s)                       : 6 channels
Channel positions                : Front: L C R, Surround: L R, LFE
Sampling rate                    : 48.0 KHz
Resolution                       : 24 bits
Stream size                      : 633 MiB (4%)
Title                            : DTS 5.1 @ 768kbps (Dubbed)
Language                         : Russian

Audio #2
ID                               : 3
Format                           : AC-3
Format/Info                      : Audio Coding 3
Codec ID                         : A_AC3
Duration                         : 1h 55mn
Bit rate mode                    : Constant
Bit rate                         : 448 Kbps
Channel(s)                       : 6 channels
Channel positions                : Front: L C R, Surround: L R, LFE
Sampling rate                    : 48.0 KHz
Stream size                      : 370 MiB (2%)
Title                            : DD 5.1 @ 448kbps (Glanz)
Language                         : Russian

Audio #3
ID                               : 4
Format                           : FLAC
Format/Info                      : Free Lossless Audio Codec
Codec ID                         : A_FLAC
Duration                         : 1h 55mn
Bit rate mode                    : Variable
Channel(s)                       : 6 channels
Sampling rate                    : 48.0 KHz
Resolution                       : 24 bits
Title                            : FLAC 5.1 @ 2133kbps, 24bit (lossless compression from TrueHD)
Writing library                  : libFLAC 1.2.0 (UTC 2007-07-15)
Language                         : English

Audio #4
ID                               : 5
Format                           : AC-3
Format/Info                      : Audio Coding 3
Codec ID                         : A_AC3
Duration                         : 1h 55mn
Bit rate mode                    : Constant
Bit rate                         : 192 Kbps
Channel(s)                       : 2 channels
Channel positions                : L R
Sampling rate                    : 48.0 KHz
Stream size                      : 158 MiB (1%)
Title                            : DD 2.0 @ 192kbps (Director's comments)
Language                         : English

Text #1
ID                               : 6
Format                           : UTF-8
Codec ID                         : S_TEXT/UTF8
Codec ID/Info                    : UTF-8 Plain Text
Language                         : Russian

Text #2
ID                               : 7
Format                           : ASS
Codec ID                         : S_TEXT/ASS
Codec ID/Info                    : Advanced Sub Station Alpha
Language                         : English

Menu
00:00:00.000                     : en:Chapter 1
00:04:01.000                     : en:Chapter 2
00:09:44.533                     : en:Chapter 3
00:13:55.366                     : en:Chapter 4
00:20:59.583                     : en:Chapter 5
00:27:49.366                     : en:Chapter 6
00:31:43.950                     : en:Chapter 7
00:38:41.116                     : en:Chapter 8
00:43:48.116                     : en:Chapter 9
00:49:58.916                     : en:Chapter 10
00:58:08.283                     : en:Chapter 11
01:05:30.833                     : en:Chapter 12
01:10:30.666                     : en:Chapter 13
01:15:44.033                     : en:Chapter 14
01:20:31.116                     : en:Chapter 15
01:25:02.166                     : en:Chapter 16
01:31:28.283                     : en:Chapter 17
01:35:51.533                     : en:Chapter 18
01:42:04.700                     : en:Chapter 19
01:46:00.000                     : en:Chapter 20
__________________
REMUX FOREVER

Watching HD on: LCD Sharp 46XL2E, Yamaha RX-V563, Yamaha NS-777, Yamaha NS-333, Yamaha NS-444, Yamaha YST-SW215, WD TV, My Book EE 1 TB (3), HP SE 1.5 ТБ (1)|| DVD watching on: Yamaha DVD-S663|| DVD-Audio, SACD: Onkyo DV-SP504E

Поделитесь со своими друзьями в соцсетях:

WDTV Forum / Форум про HD фильмы / Эти фильмы играются / Борн. Трилогия / The Bourne Trilogy (2002, 2004, 2007) 1080p HD DVD remux