Неофициальный клуб пользователей HD видео плеера WD TV


»Юзер: »Пароль:   Запомнить? 
WDTV Forum / Форум про HD фильмы / Эти фильмы играются / Терминатор (Трилогия) / Terminator Trilogy (1984,1991,2003) Blu-Ray remuх
Написано:  27 Апр 2009 00:21
Терминатор (Трилогия) / Terminator Trilogy (1984,1991,2003) Blu-Ray remuх

Статус идёт без глюков.

Терминатор 2: режиссерская версия дорожка DTS-HD Master Audio 6ch на прошивке 1.02.07 на моём RX-V563 начала воспроизводится (ОСТАЁТСЯ НЕПОНЯТНЫМ) по оптике, но на 15 мин просмотра WDHD зависает.

А всё остальное ок.




    Информация о фильме           
Название: Терминатор
Оригинальное название: Terminator
Год выхода: 1984
Жанр: Боевик / Фантастика
Режисер: Джеймс Кэмерон (James Cameron) / Джонатан Мостоу (Jonathan Mostow)
В ролях: Арнольд Шварценеггер (Arnold Schwarzenegger), Билл Пэкстон (Bill Paxton), Линда Хэмилтон (Linda Hamilton), Лэнс Хенриксен (Lance Henriksen), Пол Уинфилд (Paul Winfield), Рик Россович (Rick Rossovich),Роберт Патрик (Robert Patrick), Ник Стал (Nick Stul), Кристанна Локен (Kristanna Loken)

О фильме:
После ужасной атомной войны, власть на Земле захватили роботы-убийцы. Они несут смерть и полное уничтожение всему живому. Остатки сумевших выжить людей прячутся в подземельях и ведут отчаянную борьбу за выживание. Благодаря своему талантливому лидеру Джону Коннору они приближаются к победе, но чтобы разрушить планы сопротивления, роботы отправляют в прошлое чудовищного киборга-убийцу (Арнольд Шварценеггер). Его задание- предотвратить рождение лидера сопротивления. Для этого он должен найти и убить будущую мать героя. Чтобы защитить женщину, сопротивление отправляет в прошлое своего боевика. Но что может сделать обычный человек в поединке с терминатором…

IMDB 8.1/10   135,549 votes

Выпущено: США - TriStar Pictures, Carolco Pictures, A Pacific Western Production, Lightstorm Entertainment
Продолжительность: 01:47:13

Файл
Качество: Blu-ray Remux
Видео: H.264, NTSC 23.976, 1920х1080, ~26700 кб/с
Звук #1: Русский (Дублированый закадровый), AC3, 6ch (L, C, R, Ls, Rs +LFE), 640 кб/с (Позитив Мультимедиа)
Звук #2: Русский (Профессиональный (одноголосый)), DTS, 6ch (L, C, R, Ls, Rs +LFE), 1536 кб/с (Гаврилов)
Звук #3: Русский (Профессиональный (одноголосый)), PCM, 6ch (L, C, R, Ls, Rs +LFE), ~4600 кб/с (Гоблин)
Звук #4: Английский (Оригинал), PCM, 6ch (L, C, R, Ls, Rs +LFE), ~4600 кб/с
Субтитры: Русский, Английский.
Скриншоты

----------------------------------------------------------------------
Информация о фильме
Название: Терминатор 2: режиссерская версия
Оригинальное название: Terminator 2 Directors Cut
Год выхода: 1991
Жанр: Боевик / Фантастика
Режисер: Джеймс Кэмерон (James Cameron) / Джонатан Мостоу (Jonathan Mostow)
В ролях:Арнольд Шварценеггер, Линда Хэмилтон, Эдвард Ферлонг, Роберт Патрик, Эрл Боэн, Джо Мортон, С. Ипата Меркерсон, Кастуло Герра, Джинетт Голдстайн, Ксандер Беркли, Майкл Эдвардс, Рон Лэйк, Том МакДоналд, Майкл Бьен, Нэнси Фиш

О фильме:
Война роботов и людей продолжается. Казалось, что человечество обречено на полное уничтожение. Но благодаря своему лидеру Джону Коннору у сопротивления появляется шанс победить. Не имея возможности убить Джона в реальном времени, роботы отправляют в прошлое свою самую совершенную разработку — терминатора-убийцу из жидкого металла, способного принимать любое обличье.Теперь, чтобы победить в будущем, юному Джону Коннору надо выжить в настоящем. Его шансы существенно повышаются, когда на помощь приходит перепрограммированный сопротивлением терминатор предыдущего поколения. Оба робота вступают в смертельный бой, от исхода которого зависит судьба человечества.

IMDB 8.4/10   180,021 votes

Выпущено: США - TriStar Pictures, Carolco Pictures, A Pacific Western Production, Lightstorm Entertainment
Продолжительность: 02:33.25

Файл
Качество: Blu-ray Remux
Видео: H.264, NTSC 23.976, 1920х1080, ~26700 кб/с
Звук #1: Русский (Профессиональный(многоголосый)), DTS, 6ch (L, C, R, Ls, Rs +LFE), 1536 кб/с (Киномания)
Звук #2: Русский (Профессиональный (многоголосый)), DTS, 6ch (L, C, R, Ls, Rs +LFE), 1536 кб/с (Позитив Мультимедиа)
Звук #3: Русский (Профессиональный (одноголосый)), DTS, 6ch (L, C, R, Ls, Rs +LFE), 1536 кб/с (Гаврилов)
Звук #4: Русский(Профессиональный (одноголосый)) DTS 6ch (L, C, R, Ls, Rs +LFE) 1536 кб/с (Гоблин)
Звук #5: Английский(Оригинал) DTS-HD Master Audio 6ch (L, C, R, Ls, Rs +LFE) ~3000 кб/с
Звук #6: Английский(Оригинал) AC3, 2ch, (L, C) 192 кб/с (Комментарии режиссера)
Субтитры: Русский, Английский.
Скриншоты

-----------------------------------------------------------------------
Информация о фильме
Название: Терминатор 3: Восстание машин
Оригинальное название: Terminator 3: Rise of the Machines
Год выхода: 2003
Жанр: Боевик / Фантастика
Режисер: Джеймс Кэмерон (James Cameron) / Джонатан Мостоу (Jonathan Mostow)
В ролях:Арнольд Шварценеггер, Ник Сталь, Клер Дэйнс, Кристанна Локен, Дэвид Эндрюс, Марк Фамиглетти, Эрл Боэн, Мойра Харрис, Чоппер Бернет, Кристофер Лоуфорд, Кэролин Хеннеси, Джей Аковон, М.С. Гейни, Сьюзэн Мерсон, Элизабет Мохэд, Джимми Снайдер, Билли Д. Лукас, Брайан Сайтс, Алана Керри, Ларри МакКормик, Роберт Алонсо

О фильме:
Война роботов и людей продолжается. Казалось, что человечество обречено на полное уничтожение. Но благодаря своему лидеру Джону Коннору у сопротивления появляется шанс победить. Не имея возможности убить Джона в реальном времени, роботы отправляют в прошлое свою самую совершенную разработку — терминатора-убийцу из жидкого металла, способного принимать любое обличье.Теперь, чтобы победить в будущем, юному Джону Коннору надо выжить в настоящем. Его шансы существенно повышаются, когда на помощь приходит перепрограммированный сопротивлением терминатор предыдущего поколения. Оба робота вступают в смертельный бой, от исхода которого зависит судьба человечества.

IMDB 6.7/10   81,533 votes 

Выпущено: США - TriStar Pictures, Carolco Pictures, A Pacific Western Production, Lightstorm Entertainment
Продолжительность: 01:49:00

Файл
Качество: Blu-ray Remux
Видео: H.264, NTSC 23.976, 1920х1080, ~26700 кб/с
Звук #1: Русский (Дублированый), AC3, 6ch, (L, C, R, Ls, Rs +LFE) 448 кб/с
Звук #2: Русский (Профессиональный(одноголосый)), AC3, 6ch, (L, C, R, Ls, Rs +LFE) 640 кб/с (Гаврилов)
Звук #3: Английский(Оригинал), AC3, 6ch (L, C, R, Ls, Rs +LFE), 640 кб/с
Звук #4: Английский(Оригинал) AC3, 2ch, (L, C) 192 кб/с (Комментарии)
Субтитры: Русский, Английский.

ССЫЛКО:

http://hdtracker.ru/details.php?id=2904
http://tracker.0day.kiev.ua/details.php?id=39026
__________________
REMUX FOREVER

Watching HD on: LCD Sharp 46XL2E, Yamaha RX-V563, Yamaha NS-777, Yamaha NS-333, Yamaha NS-444, Yamaha YST-SW215, WD TV, My Book EE 1 TB (3), HP SE 1.5 ТБ (1)|| DVD watching on: Yamaha DVD-S663|| DVD-Audio, SACD: Onkyo DV-SP504E
Написано:  27 Апр 2009 00:21
mediainfo:

Терминатор 1:

General
ID                               : 1
Complete name                    : N:\hd films\Terminator_Trilogy\Terminator\BDMV\STREAM\00001.m2ts
Format                           : BDAV
Format/Info                      : BluRay Video
File size                        : 23.8 GiB
Duration                         : 1h 47mn
Overall bit rate                 : 31.7 Mbps
Maximum Overall bit rate         : 35.5 Mbps

Video
ID                               : 4113 (0x1011)
Menu ID                          : 1 (0x1)
Format                           : MPEG Video
Format version                   : Version 2
Format profile                   : Main@High
Format settings, Matrix          : Default
Duration                         : 1h 47mn
Bit rate mode                    : Variable
Bit rate                         : 26.7 Mbps
Nominal bit rate                 : 30.0 Mbps
Width                            : 1 920 pixels
Height                           : 1 080 pixels
Display aspect ratio             : 16/9
Frame rate                       : 23.976 fps
Colorimetry                      : 4:2:0
Scan type                        : Progressive
Bits/(Pixel*Frame)               : 0.538
Stream size                      : 20.0 GiB (84%)

Audio #1
ID                               : 4352 (0x1100)
Menu ID                          : 1 (0x1)
Format                           : AC-3
Format/Info                      : Audio Coding 3
Duration                         : 1h 47mn
Bit rate mode                    : Constant
Bit rate                         : 640 Kbps
Channel(s)                       : 6 channels
Channel positions                : Front: L C R, Surround: L R, LFE
Sampling rate                    : 48.0 KHz
Stream size                      : 491 MiB (2%)
Language                         : Russian

Audio #2
ID                               : 4353 (0x1101)
Menu ID                          : 1 (0x1)
Format                           : DTS
Format/Info                      : Digital Theater Systems
Duration                         : 1h 47mn
Bit rate mode                    : Constant
Bit rate                         : 1 536 Kbps
Channel(s)                       : 6 channels
Channel positions                : Front: L C R, Surround: L R, LFE
Sampling rate                    : 48.0 KHz
Resolution                       : 16 bits
Stream size                      : 1.15 GiB (5%)
Language                         : Russian

Audio #3
ID                               : 4354 (0x1102)
Menu ID                          : 1 (0x1)
Format                           : PCM
Format settings, Endianness      : Big
Format settings, Sign            : Signed
Duration                         : 1h 47mn
Bit rate mode                    : Constant
Bit rate                         : 768 Kbps
Channel(s)                       : 1 channel
Channel positions                : Front: C
Sampling rate                    : 48.0 KHz
Stream size                      : 589 MiB (2%)
Language                         : Russian

Audio #4
ID                               : 4355 (0x1103)
Menu ID                          : 1 (0x1)
Format                           : PCM
Format settings, Endianness      : Big
Format settings, Sign            : Signed
Duration                         : 1h 47mn
Bit rate mode                    : Constant
Bit rate                         : 768 Kbps
Channel(s)                       : 1 channel
Channel positions                : Front: C
Sampling rate                    : 48.0 KHz
Stream size                      : 589 MiB (2%)
Language                         : English

Text #1
ID                               : 4608 (0x1200)
Menu ID                          : 1 (0x1)
Format                           : PGS
Language                         : Russian

Text #2
ID                               : 4609 (0x1201)
Menu ID                          : 1 (0x1)
Format                           : PGS
Language                         : English
====================================================
Терминатор2 :

General
ID                               : 1
Complete name                    : N:\hd films\Terminator_Trilogy\Terminator 2\BDMV\STREAM\00001.m2ts
Format                           : BDAV
Format/Info                      : BluRay Video
File size                        : 31.5 GiB
Duration                         : 2h 33mn
Overall bit rate                 : 29.4 Mbps
Maximum Overall bit rate         : 35.5 Mbps

Video
ID                               : 4113 (0x1011)
Menu ID                          : 1 (0x1)
Format                           : VC-1
Format profile                   : AP@L3
Duration                         : 2h 33mn
Width                            : 1 920 pixels
Height                           : 1 080 pixels
Display aspect ratio             : 16/9
Frame rate                       : 23.976 fps
Colorimetry                      : 4:2:0
Scan type                        : Progressive

Audio #1
ID                               : 4352 (0x1100)
Menu ID                          : 1 (0x1)
Format                           : DTS
Format/Info                      : Digital Theater Systems
Duration                         : 2h 33mn
Bit rate mode                    : Constant
Bit rate                         : 1 536 Kbps
Channel(s)                       : 6 channels
Channel positions                : Front: L C R, Surround: L R, LFE
Sampling rate                    : 48.0 KHz
Resolution                       : 24 bits
Stream size                      : 1.65 GiB (5%)
Language                         : Russian

Audio #2
ID                               : 4353 (0x1101)
Menu ID                          : 1 (0x1)
Format                           : DTS
Format/Info                      : Digital Theater Systems
Duration                         : 2h 33mn
Bit rate mode                    : Constant
Bit rate                         : 1 536 Kbps
Channel(s)                       : 6 channels
Channel positions                : Front: L C R, Surround: L R, LFE
Sampling rate                    : 48.0 KHz
Resolution                       : 24 bits
Stream size                      : 1.65 GiB (5%)
Language                         : Russian

Audio #3
ID                               : 4354 (0x1102)
Menu ID                          : 1 (0x1)
Format                           : DTS
Format/Info                      : Digital Theater Systems
Duration                         : 2h 33mn
Bit rate mode                    : Constant
Bit rate                         : 1 536 Kbps
Channel(s)                       : 6 channels
Channel positions                : Front: L C R, Surround: L R, LFE
Sampling rate                    : 48.0 KHz
Resolution                       : 16 bits
Stream size                      : 1.65 GiB (5%)
Language                         : Russian

Audio #4
ID                               : 4355 (0x1103)
Menu ID                          : 1 (0x1)
Format                           : DTS
Format/Info                      : Digital Theater Systems
Duration                         : 2h 33mn
Bit rate mode                    : Constant
Bit rate                         : 1 536 Kbps
Channel(s)                       : 6 channels
Channel positions                : Front: L C R, Surround: L R, LFE
Sampling rate                    : 48.0 KHz
Resolution                       : 16 bits
Stream size                      : 1.65 GiB (5%)
Language                         : Russian

Audio #5
ID                               : 4356 (0x1104)
Menu ID                          : 1 (0x1)
Format                           : DTS
Format/Info                      : Digital Theater Systems
Format profile                   : MA
Duration                         : 2h 33mn
Bit rate mode                    : Variable
Channel(s)                       : 6 channels
Channel positions                : Front: L C R, Surround: L R, LFE
Sampling rate                    : 48.0 KHz
Resolution                       : 16 bits
Language                         : English

Audio #6
ID                               : 4357 (0x1105)
Menu ID                          : 1 (0x1)
Format                           : AC-3
Format/Info                      : Audio Coding 3
Duration                         : 2h 33mn
Bit rate mode                    : Constant
Bit rate                         : 192 Kbps
Channel(s)                       : 2 channels
Channel positions                : L R
Sampling rate                    : 48.0 KHz
Stream size                      : 211 MiB (1%)
Language                         : English

Text
ID                               : 4608 (0x1200)
Menu ID                          : 1 (0x1)
Format                           : PGS
Language                         : Russian
====================================================
Терминатор 3

General
ID                               : 1
Complete name                    : N:\hd films\Terminator_Trilogy\Terminator 3\BDMV\STREAM\00001.m2ts
Format                           : BDAV
Format/Info                      : BluRay Video
File size                        : 12.6 GiB
Duration                         : 1h 49mn
Overall bit rate                 : 16.6 Mbps
Maximum Overall bit rate         : 35.5 Mbps

Video
ID                               : 4113 (0x1011)
Menu ID                          : 1 (0x1)
Format                           : VC-1
Format profile                   : AP@L3
Duration                         : 1h 49mn
Bit rate                         : 13.8 Mbps
Width                            : 1 920 pixels
Height                           : 1 080 pixels
Display aspect ratio             : 16/9
Frame rate                       : 23.976 fps
Colorimetry                      : 4:2:0
Scan type                        : Progressive
Bits/(Pixel*Frame)               : 0.278
Stream size                      : 10.5 GiB (83%)

Audio #1
ID                               : 4352 (0x1100)
Menu ID                          : 1 (0x1)
Format                           : AC-3
Format/Info                      : Audio Coding 3
Duration                         : 1h 49mn
Bit rate mode                    : Constant
Bit rate                         : 448 Kbps
Channel(s)                       : 6 channels
Channel positions                : Front: L C R, Surround: L R, LFE
Sampling rate                    : 48.0 KHz
Stream size                      : 349 MiB (3%)
Language                         : Russian

Audio #2
ID                               : 4353 (0x1101)
Menu ID                          : 1 (0x1)
Format                           : AC-3
Format/Info                      : Audio Coding 3
Duration                         : 1h 49mn
Bit rate mode                    : Constant
Bit rate                         : 640 Kbps
Channel(s)                       : 6 channels
Channel positions                : Front: L C R, Surround: L R, LFE
Sampling rate                    : 48.0 KHz
Stream size                      : 499 MiB (4%)
Language                         : Russian

Audio #3
ID                               : 4354 (0x1102)
Menu ID                          : 1 (0x1)
Format                           : AC-3
Format/Info                      : Audio Coding 3
Duration                         : 1h 49mn
Bit rate mode                    : Constant
Bit rate                         : 640 Kbps
Channel(s)                       : 6 channels
Channel positions                : Front: L C R, Surround: L R, LFE
Sampling rate                    : 48.0 KHz
Stream size                      : 499 MiB (4%)
Language                         : English

Audio #4
ID                               : 4355 (0x1103)
Menu ID                          : 1 (0x1)
Format                           : AC-3
Format/Info                      : Audio Coding 3
Format profile                   : Dolby Digital
Duration                         : 1h 49mn
Bit rate mode                    : Constant
Bit rate                         : 192 Kbps
Channel(s)                       : 2 channels
Channel positions                : L R
Sampling rate                    : 48.0 KHz
Stream size                      : 150 MiB (1%)
Language                         : English

Audio #5
ID                               : 4356 (0x1104)
Menu ID                          : 1 (0x1)
Format                           : AC-3
Format/Info                      : Audio Coding 3
Format profile                   : Dolby Digital
Duration                         : 1h 49mn
Bit rate mode                    : Constant
Bit rate                         : 192 Kbps
Channel(s)                       : 2 channels
Channel positions                : L R
Sampling rate                    : 48.0 KHz
Stream size                      : 150 MiB (1%)
Language                         : English

Text #1
ID                               : 4608 (0x1200)
Menu ID                          : 1 (0x1)
Format                           : PGS
Language                         : Russian

Text #2
ID                               : 4609 (0x1201)
Menu ID                          : 1 (0x1)
Format                           : PGS
Duration                         : 1h 48mn
Language                         : English
__________________
REMUX FOREVER

Watching HD on: LCD Sharp 46XL2E, Yamaha RX-V563, Yamaha NS-777, Yamaha NS-333, Yamaha NS-444, Yamaha YST-SW215, WD TV, My Book EE 1 TB (3), HP SE 1.5 ТБ (1)|| DVD watching on: Yamaha DVD-S663|| DVD-Audio, SACD: Onkyo DV-SP504E

Поделитесь со своими друзьями в соцсетях:

WDTV Forum / Форум про HD фильмы / Эти фильмы играются / Терминатор (Трилогия) / Terminator Trilogy (1984,1991,2003) Blu-Ray remuх