Неофициальный клуб пользователей HD видео плеера WD TV


»Юзер: »Пароль:   Запомнить? 
WDTV Forum / Форум про WD TV Gen2 / Опыт эксплуатации / Посоветуйте перекодировщик
Написано:  03 Июн 2010 05:04   Отредактировано: lesha_faza
какую прогу использовать, желательно универсальную, для файла (WD отсылает изучать инструкцию)

General
Complete name                    : E:\Музыка_МР3\ЛЕПС\ЛЕПС клипы\G.Leps_Viuga_clip_muzTV.avi
Format                           : AVI
Format/Info                      : Audio Video Interleave
File size                        : 48.3 MiB
Duration                         : 4mn 23s
Overall bit rate                 : 1 537 Kbps
Writing library                  : VirtualDub build 10740/release

Video
Format                           : S-Mpeg 4 v3
Codec ID                         : MP43
Codec ID/Info                    : Microsoft MPEG-4 V3
Duration                         : 4mn 23s
Bit rate                         : 1 399 Kbps
Width                            : 384 pixels
Height                           : 288 pixels
Display aspect ratio             : 4:3
Frame rate                       : 25.330 fps
Resolution                       : 24 bits
Bits/(Pixel*Frame)               : 0.499
Stream size                      : 43.9 MiB (91%)

Audio
ID                               : 1
Format                           : MPEG Audio
Format version                   : Version 1
Format profile                   : Layer 3
Format_Settings_Mode             : Joint stereo / MS Stereo
Codec ID                         : 55
Codec ID/Hint                    : MP3
Duration                         : 4mn 23s
Bit rate mode                    : Constant
Bit rate                         : 128 Kbps
Channel(s)                       : 2 channels
Sampling rate                    : 44.1 KHz
Resolution                       : 16 bits
Video delay                      : 1ms
Stream size                      : 4.02 MiB (8%)
Alignment                        : Split accross interleaves
Interleave, duration             : 40 ms (1.00 video frame)
Interleave, preload duration     : 500 ms



И еще один вариант

General
Complete name                    : C:\Documents and Settings\Admin\Рабочий стол\konc_poklon_lepc_kupala.avi
Format                           : AVI
Format/Info                      : Audio Video Interleave
File size                        : 87.4 MiB
Duration                         : 6mn 38s
Overall bit rate                 : 1 840 Kbps
Writing library                  : VirtualDub-MPEG2 build 24600/release

Video
Format                           : VP7
Codec ID                         : VP70
Codec ID/Hint                    : On2
Duration                         : 6mn 38s
Bit rate                         : 1 734 Kbps
Width                            : 768 pixels
Height                           : 576 pixels
Display aspect ratio             : 4:3
Frame rate                       : 25.000 fps
Resolution                       : 24 bits
Bits/(Pixel*Frame)               : 0.157
Stream size                      : 82.4 MiB (94%)

Audio
ID                               : 1
Format                           : MPEG Audio
Format version                   : Version 1
Format profile                   : Layer 3
Codec ID                         : 55
Codec ID/Hint                    : MP3
Duration                         : 6mn 38s
Bit rate mode                    : Constant
Bit rate                         : 96.0 Kbps
Channel(s)                       : 1 channel
Sampling rate                    : 32.0 KHz
Resolution                       : 16 bits
Stream size                      : 4.56 MiB (5%)
Alignment                        : Split accross interleaves
Interleave, duration             : 40 ms (1.00 video frame)
Interleave, preload duration     : 500 ms
Написано:  03 Июн 2010 08:56
попробуй xvid4psp (выбери там контейнер MKV и кодек H.264)
__________________
Где купить WD TV: Live Streaming
Написано:  04 Июн 2010 00:29
Спасибо -все получилось
Написано:  06 Июн 2010 20:35
А можно про аудио? Много музыки в Ape wv и др. - решил всё перегнать во флак. Проблема в том, что комп читает переведённое, а проигрыватель - нет . Может не тем пользуюсь? Использую Total audio converter. Подскажите,как решить сложившуюся ситуацию?
__________________
WDTV-2 wd my passport essential 1TB ресивер Pioneer VSX-415 колонки GEMIX 006 саб Pioneer S-W160S-K
Написано:  06 Июн 2010 21:44
воспользовался прогой Audio Transcoder. Заиграл альбом, который не играл . Завтра поперевожу ещё
__________________
WDTV-2 wd my passport essential 1TB ресивер Pioneer VSX-415 колонки GEMIX 006 саб Pioneer S-W160S-K
Написано:  06 Июн 2010 21:57
rujik1985, ну или Easy CD-DA Extractor попробуй
хороший софт!
и в плане граббинга, и в плане конвертации..
__________________
Где купить WD TV: Live Streaming
Написано:  07 Июн 2010 18:26
спасибо!
__________________
WDTV-2 wd my passport essential 1TB ресивер Pioneer VSX-415 колонки GEMIX 006 саб Pioneer S-W160S-K

Поделитесь со своими друзьями в соцсетях:

WDTV Forum / Форум про WD TV Gen2 / Опыт эксплуатации / Посоветуйте перекодировщик