Неофициальный клуб пользователей HD видео плеера WD TV


»Юзер: »Пароль:   Запомнить? 
WDTV Forum / Форум про WD TV Gen1 / Опыт эксплуатации / Разбор ситуации с тормозами на тяжелых ремуксах
Написано:  26 Апр 2010 05:05
Камрады, плз, помогите разобраться в ситуации, оч прошу, чувствую что, что-то не так с проигрыванием тяжелых файлов (ремуксы за 30 ГБ с DTS) ...
Итак - конфигурация ...
ЖК 42`Philips 9703.
ВД-шка 1 поколения (прошивка 1.03.1 русская от ЭльДрако).
Ресивер Pioneer 1018.
Внешний HDD WD My Passport 500 ГБ.
ЖК и ВД-шка соединены по HDMI (кабель Konoos 1,8м 400руб.).
Ресивер и ВД-шка через оптику Hama 1,5м.
ВД-шка и винт установлены в застекленной тумбе (вентиляция отсутствует - греется, но вроде не оч сильно).
Ситуация - скачал с рутрекера ремукс Аватар на 38 гектар http://rutracker.org/forum/viewtopic.php?t=2918955 ... несколько первых минут идет идеально, аж дух захватывает, затем начинает подтормаживать, но вскоре исправляется, и так несколько раз, затем доходит до тяжелых сцен и начинаются жутие тормоза, пропадает звук (DTS через ресивер) ... лечится кратковременным нажатием кнопки перемотки, затем "плей" , помогает на полминуты и опять, короче смотреть не возможно.Перед заливкой на My Passport спецом его дефрагментировал, он залился целиком на пустое место и такой сюрприз ... че делать? ... в чем дело? ...
Мои подозрения:
1. проц не тянет - коробка не справляется с нагрузкой (тяжелое видео + DTS);
2. что-то с винтом;
3. кабель;
4. проц возможно не тянет из-за перегрева (стоит в глухой тумбе).

ПОМОГИТЕ разобраться, плз!

зы: файлы меньшего размера (в районе 20 ГБ) тянет хорошо и с DTS, а вот этого Аватара и еще Трансформеров-2 на 36 ГБ вот с такими глюками
Написано:  26 Апр 2010 08:42
У меня этот же файл отыгрался на ура по домашней сети. Правда у меня WDTV Live. Проигрываю через homemediaserver. Проблемы, которые ты описываешь были когда проигрывал ремуксы и блюрэи через расшаренные ресурсы. Следовательно, процессор ни причем. попробуй другой диск подключить.
Написано:  26 Апр 2010 09:07
easyrider, у Лайв все таки проц другой, посильнее ... т.е. интересует именно на ВД-1 этот фильм идет на ура?
Написано:  26 Апр 2010 09:44
а может быть причиной неродной шнурок от Май паспорта? ... дома шнурок от фотика воткнут ...
Написано:  26 Апр 2010 18:17
У меня та же ситуация - тормоза картинки и звука. DTS не воспроизводился, конвертировал Попкорном, стало хорошо со звуком, но картинка тормозит жестко - смотреть не вариант. До этого смотрел Трансформеров 2 ремукс под 40г, все было без затыков, как надо! В чем же дело???
Вдэшка первая, телек Филипс 42PFL3604/60.
Спасите!!!)
Написано:  26 Апр 2010 21:58
Тоже тормозит,WD 1.И ЧТО ВСЕТАКИ ДЕЛАТЬ?Какой плеер взять чтобы небыло таких проблем(кроме Dune BD Prime 3.0)?
Написано:  26 Апр 2010 22:46
а покажите mediainfo на этот фильм.. любопытно даже, чего там такое.. может всё-таки диск не справляется?!
__________________
Где купить WD TV: Live Streaming
Написано:  26 Апр 2010 23:19
Телек SAMSUNG LE40B653T5W вставил в него жеский диск(внем есть встроенный плеер) идет без тормозов,только вроде картинка похуже,может настроить его и использовать вместо WD1?
Написано:  27 Апр 2010 00:56
блин, а как узнать mediainfo?))) что нужно сделать?
Написано:  27 Апр 2010 05:55   Отредактировано: Serge
touch, вот, вроде ничего особенного
Цитата:
General
Complete name : Avatar.2009.BD.Remux.1080p.h264.Rus.Eng.mkv
Format : Matroska
File size : 38.1 GiB
Duration : 2h 41mn
Overall bit rate : 33.7 Mbps
Encoded date : UTC 2010-04-23 21:30:35
Writing application : mkvmerge v3.3.0 ('Language') built on Mar 24 2010 14:59:24
Writing library : libebml v0.8.0 + libmatroska v0.9.0

Video
ID : 1
Format : AVC
Format/Info : Advanced Video Codec
Format profile : High@L4.1
Format settings, CABAC : Yes
Format settings, ReFrames : 2 frames
Muxing mode : Container profile=Unknown@0.0
Codec ID : V_MPEG4/ISO/AVC
Duration : 2h 41mn
Width : 1 920 pixels
Height : 1 080 pixels
Display aspect ratio : 16:9
Frame rate : 23.976 fps
Resolution : 8 bits
Colorimetry : 4:2:0
Scan type : Progressive
Language : English

Audio #1
ID : 2
Format : DTS
Format/Info : Digital Theater Systems
Codec ID : A_DTS
Duration : 2h 41mn
Bit rate mode : Constant
Bit rate : 755 Kbps
Channel(s) : 6 channels
Channel positions : Front: L C R, Surround: L R, LFE
Sampling rate : 48.0 KHz
Resolution : 24 bits
Stream size : 873 MiB (2%)
Title : CEE Blu-Ray DTS 5.1 768 kbps
Language : Russian

Audio #2
ID : 3
Format : DTS
Format/Info : Digital Theater Systems
Format profile : MA
Codec ID : A_DTS
Duration : 2h 41mn
Bit rate mode : Variable
Channel(s) : 6 channels
Channel positions : Front: L C R, Surround: L R, LFE
Sampling rate : 48.0 KHz
Resolution : 24 bits
Title : DTS-HD Master Audio, 5.1, 4146 kbps, 24 bit, Lossless (1536 kbps core)
Language : English
Написано:  27 Апр 2010 06:53
Парни, на вашем месте, я бы его в TS перелил! Есть такая тема, что тяжелые ремуксы лучше идут в TS контейнере, нежели в Матрёшке.
Написано:  27 Апр 2010 07:11
А какой прогой в TS перегнат, пожайлуста подробней.
Написано:  27 Апр 2010 10:17
согласен, муксить его в .ts - это первым делом.. я то думал речь идёт о .ts ремуксе - и он тормозит!topor, перегнать можно прогой tsMuxer
__________________
Где купить WD TV: Live Streaming
Написано:  27 Апр 2010 12:46
Скачал BD Rip идет без затыков - все как надо!!!

Вот медиаинфо Ремукса

General
Complete name                    : N:\Films BD\Avatar BD\Avatar.2009.BD.Remux.1080p.h264.Rus.Eng.mkv
Format                           : Matroska
File size                        : 39.5 GiB
Duration                         : 2h 41mn
Overall bit rate                 : 35.0 Mbps
Encoded date                     : UTC 2010-04-26 08:55:50
Writing application              : mkvmerge v2.6.0 ('Kelly watch the Stars') built on Mar 24 2009 15:23:17
Writing library                  : libebml v0.7.7 + libmatroska v0.8.1

Video
ID                               : 1
Format                           : AVC
Format/Info                      : Advanced Video Codec
Codec ID                         : V_MPEG4/ISO/AVC
Duration                         : 2h 41mn
Width                            : 1 920 pixels
Height                           : 1 080 pixels
Display aspect ratio             : 16:9
Frame rate                       : 23.976 fps
Language                         : English

Audio #1
ID                               : 2
Format                           : AC-3
Format/Info                      : Audio Coding 3
Format_Settings_ModeExtension    : CM (complete main)
Codec ID                         : A_AC3
Duration                         : 2h 41mn
Bit rate mode                    : Constant
Bit rate                         : 640 Kbps
Channel(s)                       : 6 channels
Channel positions                : Front: L C R, Side: L R, LFE
Sampling rate                    : 48.0 KHz
Stream size                      : 740 MiB (2%)
Title                            : CEE Blu-Ray AC3 5.1 768 kbps
Language                         : Russian

Audio #2
ID                               : 3
Format                           : AC-3
Format/Info                      : Audio Coding 3
Format_Settings_ModeExtension    : CM (complete main)
Codec ID                         : A_AC3
Duration                         : 2h 41mn
Bit rate mode                    : Constant
Bit rate                         : 640 Kbps
Channel(s)                       : 6 channels
Channel positions                : Front: L C R, Side: L R, LFE
Sampling rate                    : 48.0 KHz
Stream size                      : 740 MiB (2%)
Title                            : AC3 -HD Master Audio, 5.1, 4146 kbps, 24 bit, Lossless (1536 kbps core)
Language                         : English


ID                               : 14
Format                           : UTF-8
Codec ID                         : S_TEXT/UTF8
Codec ID/Info                    : UTF-8 Plain Text
Title                            : Forced
Language                         : English

А ВОТ BD RIP

General
Complete name                    : N:\Films BD\Avatar.2009.x264.BDRip.1080p.Rus.Eng.mkv
Format                           : Matroska
File size                        : 13.2 GiB
Duration                         : 2h 41mn
Overall bit rate                 : 11.7 Mbps
Movie name                       : --SCHUMAHER--
Encoded date                     : UTC 2010-04-26 20:58:55
Writing application              : mkvmerge v2.6.0 ('Kelly watch the Stars') built on Mar 24 2009 15:23:17
Writing library                  : libebml v0.7.7 + libmatroska v0.8.1

Video
ID                               : 1
Format                           : AVC
Format/Info                      : Advanced Video Codec
Format profile                   : High@L4.1
Format settings, CABAC           : Yes
Format settings, ReFrames        : 4 frames
Muxing mode                      : Container profile=Unknown@4.1
Codec ID                         : V_MPEG4/ISO/AVC
Duration                         : 2h 41mn
Bit rate                         : 7 948 Kbps
Nominal bit rate                 : 8 171 Kbps
Width                            : 1 920 pixels
Height                           : 1 080 pixels
Display aspect ratio             : 16:9
Frame rate                       : 23.976 fps
Resolution                       : 8 bits
Colorimetry                      : 4:2:0
Scan type                        : Progressive
Bits/(Pixel*Frame)               : 0.160
Stream size                      : 8.98 GiB (68%)
Writing library                  : x264 core 93 r1542 5b86182
Encoding settings                : cabac=1 / ref=4 / deblock=1:0:0 / analyse=0x3:0x133 / me=umh / subme=7 / psy=1 / psy_rd=1.00:0.00 / mixed_ref=1 / me_range=16 / chroma_me=1 / trellis=1 / 8x8dct=1 / cqm=0 / deadzone=21,11 / fast_pskip=1 / chroma_qp_offset=-2 / threads=12 / sliced_threads=0 / nr=0 / decimate=0 / interlaced=0 / constrained_intra=0 / bframes=3 / b_pyramid=2 / b_adapt=1 / b_bias=0 / direct=3 / wpredb=1 / wpredp=2 / keyint=240 / keyint_min=24 / scenecut=40 / intra_refresh=0 / rc_lookahead=30 / rc=2pass / mbtree=1 / bitrate=8171 / ratetol=1.0 / qcomp=0.60 / qpmin=10 / qpmax=51 / qpstep=4 / cplxblur=20.0 / qblur=0.5 / ip_ratio=1.40 / aq=1:1.00
Language                         : English

Audio #1
ID                               : 2
Format                           : AC-3
Format/Info                      : Audio Coding 3
Format_Settings_ModeExtension    : CM (complete main)
Codec ID                         : A_AC3
Duration                         : 2h 41mn
Bit rate mode                    : Constant
Bit rate                         : 640 Kbps
Channel(s)                       : 6 channels
Channel positions                : Front: L C R, Side: L R, LFE
Sampling rate                    : 48.0 KHz
Stream size                      : 740 MiB (5%)
Title                            : CEE Blu-Ray AC3 5.1 768 kbps
Language                         : Russian
Написано:  27 Апр 2010 12:50
Цитата:
AC3 -HD Master Audio, 5.1, 4146 kbps, 24 bit, Lossless (1536 kbps core)

о.. а вот это крутой формат..
что-то новенькое
__________________
Где купить WD TV: Live Streaming
Написано:  27 Апр 2010 14:24
возможно и в самих фильмах причина,вот например Аватар на дюне и попкорне меню нет
__________________
Sharp LC-32X20RU + WDTV Gen2 + WDTV Live (если понравилось 41001352107159 яндекс)
Написано:  27 Апр 2010 14:25
touch
был звук DTS я перевел его попкорном в Ас3))
Написано:  27 Апр 2010 14:37
Все!!! Проблема Решена!!! Перевел в TS и все пошло без затыков, качество максимальное, потерей нет!) Спасибо!!!)))
Написано:  27 Апр 2010 16:17
Цитата:
вот например Аватар на дюне и попкорне меню нет

вроде там диск слеплен в профиле Blu-ray 2.0 - вроде как нужно апдейтить прошивки, даже на железячные плееры, чтобы он полноценно всё играл!
__________________
Где купить WD TV: Live Streaming
Написано:  27 Апр 2010 18:41
В проге tsMuxeR какие настройки нужно выставлять?СПАСИБО!
Написано:  27 Апр 2010 18:54
да можешь всё по дефолту оставить..


__________________
Где купить WD TV: Live Streaming
Написано:  27 Апр 2010 19:05
СПАСИБКИ, ПРОБУЮ... А этой прогой можно удалить не нужные сабы и языки?
Написано:  27 Апр 2010 19:32
запросто!
галки снимай напротив ненужных дорог - и они не войдут в результирующий контейнер..
__________________
Где купить WD TV: Live Streaming
Написано:  27 Апр 2010 20:04
подтверждаю, после перегона в .ts тормоза исчезли!!! ... но ... куда-то пропали сабы ... не убирал галок, все оставлял как в матрешке, просто нажал "start muxing" ... и в новом файле сабы отсутствуют -куда могли пропасть?!
Написано:  28 Апр 2010 11:59
Да, сабов нет, такая же ситуация( Они особо не нужны, но все же.
Написано:  28 Апр 2010 12:44
Цитата:
Они особо не нужны

ну как же ... а речь На`ви? ... там были форсированный сабы, которые появлялись только на в этих местах, вот без них то как раз и "не гуд" ...
touch, можешь подсказать причину?
Написано:  28 Апр 2010 12:49
Blu-ray Аватар тоже пишет, что нет сабов, видимо проблема в ts
Написано:  28 Апр 2010 20:10
Serge, я точно не помню, работают ли .srt субтитры в .ts контейнере
проверю!
__________________
Где купить WD TV: Live Streaming

Поделитесь со своими друзьями в соцсетях:

WDTV Forum / Форум про WD TV Gen1 / Опыт эксплуатации / Разбор ситуации с тормозами на тяжелых ремуксах