Неофициальный клуб пользователей HD видео плеера WD TV


»Юзер: »Пароль:   Запомнить? 
WDTV Forum / Форум про HD фильмы / О разном / AVI сделанный Adobe Premier не распознается
Написано:  04 Апр 2010 11:12
Смонтировал в адоб премьер фильм, снятый на видеокамеру.
На выходе : формат AVI с DVD-шным разрешением.

Windows плееры (включаю Windows Media Player и  Media Player Classic) легко читаю этот AVI.

WD TV Live  - пишет, что не распознает такой формат.
Написано:  04 Апр 2010 11:14
медиаинфо файла
__________________
Sharp LC-32X20RU + WDTV Gen2 + WDTV Live (если понравилось 41001352107159 яндекс)
Написано:  04 Апр 2010 11:34   Отредактировано: Stalker
AVI

Video: DVSD 720x576 (4:3) 25.00fps [Stream 00]
Audio: PCM 48000Hz stereo 1536Kbps [Stream 01]
Size : 22 Гб


General
Complete name                    : H:\8mm_Cinema\Espania\Espania_1.avi
Format                           : AVI
Format/Info                      : Audio Video Interleave
Format profile                   : OpenDML
File size                        : 22.0 GiB
Duration                         : 1h 43mn
Overall bit rate                 : 30.3 Mbps
Tdat                             : tc_O

Video
ID                               : 0
Format                           : Digital Video
Codec ID                         : dvsd
Codec ID/Hint                    : Sony
Duration                         : 1h 43mn
Bit rate                         : 28.8 Mbps
Width                            : 720 pixels
Height                           : 576 pixels
Display aspect ratio             : 5:4
Original display aspect ratio    : 16:9
Frame rate mode                  : Constant
Frame rate                       : 25.000 fps
Standard                         : PAL
Resolution                       : 24 bits
Colorimetry                      : 4:2:0
Scan type                        : Interlaced
Bits/(Pixel*Frame)               : 2.778
Stream size                      : 20.9 GiB (95%)

Audio
Format                           : PCM
Format settings, Endianness      : Little
Format settings, Sign            : Unsigned
Codec ID                         : 1
Codec ID/Hint                    : Microsoft
Duration                         : 1h 43mn
Bit rate mode                    : Constant
Bit rate                         : 1 536 Kbps
Channel(s)                       : 2 channels
Sampling rate                    : 48.0 KHz
Resolution                       : 16 bits
Stream size                      : 1.11 GiB (5%)
Interleave, duration             : 501 ms (12.53 video frames)
Написано:  04 Апр 2010 11:38
ну вот и проблема хоть и ави но кодеки специфичные Codec ID                         : dvsd
Codec ID/Hint                    : Sony
__________________
Sharp LC-32X20RU + WDTV Gen2 + WDTV Live (если понравилось 41001352107159 яндекс)
Написано:  04 Апр 2010 11:44   Отредактировано: Stalker
Вердикт - перекодировка с другим кодеком ?
Возможно ухудшится качество...
Надо попробовать.
Написано:  04 Апр 2010 15:03
Цитата:
Вердикт - перекодировка с другим кодеком?

именно! любым, известным wd tv: h.264, xvid, mpeg2
качество, при грамотном сжатии, визуально не ухудшится - для домашнего видео битрейт в 28 мбит/сек явно избыточен..
__________________
Где купить WD TV: Live Streaming
Написано:  04 Апр 2010 21:02
Спасибо!

Поделитесь со своими друзьями в соцсетях:

WDTV Forum / Форум про HD фильмы / О разном / AVI сделанный Adobe Premier не распознается