Неофициальный клуб пользователей HD видео плеера WD TV


»Юзер: »Пароль:   Запомнить? 
WDTV Forum / Форум про HD фильмы / Эти фильмы не идут / (Anime BD) GHOST IN THE SHELL 2.0 (Blu-ray 1920x1088 x264 AAC crf24 5.1ch)
Написано:  10 Апр 2009 09:37
Видео рассыпается... плеер был куплен только вчера, прошился до 1.02.03 и вот те раз, самое первое видео которое я хотел посмотреть не пошло

Код:

General
Complete name                    : K:\(Anime BD) GHOST IN THE SHELL 2.0 (Blu-ray 1920x1088 x264 AAC crf24 5.1ch).mp4
Format                           : MPEG-4
Format profile                   : Base Media
Codec ID                         : isom
File size                        : 2.23 GiB
Duration                         : 1h 23mn
Overall bit rate                 : 3 834 Kbps
Encoded date                     : UTC 2008-12-23 10:14:42
Tagged date                      : UTC 2008-12-24 10:50:08
Comment                          : crf24

Video
ID                               : 1
Format                           : AVC
Format/Info                      : Advanced Video Codec
Format profile                   : High@L5.0
Format settings, CABAC           : Yes
Format settings, ReFrames        : 5 frames
Codec ID                         : avc1
Codec ID/Info                    : Advanced Video Coding
Duration                         : 1h 23mn
Bit rate mode                    : Variable
Bit rate                         : 3 362 Kbps
Maximum bit rate                 : 19.2 Mbps
Width                            : 1 920 pixels
Height                           : 1 088 pixels
Display aspect ratio             : 16/9
Frame rate mode                  : Constant
Frame rate                       : 23.976 fps
Resolution                       : 24 bits
Colorimetry                      : 4:2:0
Scan type                        : Progressive
Bits/(Pixel*Frame)               : 0.067
Stream size                      : 1.96 GiB (88%)
Writing library                  : x264 core 65 r1057M 5f8a149
Encoding settings                : cabac=1 / ref=5 / deblock=1:0:0 / analyse=0x3:0x133 / me=umh / subme=7 / psy_rd=1.0:0.0 / mixed_ref=1 / me_range=32 / chroma_me=1 / trellis=2 / 8x8dct=1 / cqm=2 / deadzone=21,11 / chroma_qp_offset=-2 / threads=6 / nr=0 / decimate=1 / mbaff=0 / bframes=2 / b_pyramid=1 / b_adapt=2 / b_bias=0 / direct=3 / wpredb=1 / keyint=240 / keyint_min=1 / scenecut=65(pre) / rc=crf / crf=24.0 / qcomp=0.60 / qpmin=14 / qpmax=51 / qpstep=4 / ip_ratio=1.40 / pb_ratio=1.30 / aq=1:1.00
Encoded date                     : UTC 2008-12-23 10:08:14
Tagged date                      : UTC 2008-12-23 10:18:00

Audio
ID                               : 2
Format                           : AAC
Format/Info                      : Advanced Audio Codec
Format version                   : Version 4
Format profile                   : LC
Format settings, SBR             : No
Codec ID                         : 40
Duration                         : 1h 23mn
Bit rate mode                    : Variable
Bit rate                         : 464 Kbps
Maximum bit rate                 : 574 Kbps
Channel(s)                       : 6 channels
Channel positions                : Front: L C R, Rear: L R, LFE
Sampling rate                    : 48.0 KHz
Resolution                       : 16 bits
Stream size                      : 276 MiB (12%)
Encoded date                     : UTC 2008-12-23 10:17:36
Tagged date                      : UTC 2008-12-23 10:18:00
Написано:  10 Апр 2009 10:10
сильно рассыпается? вообще-то не должно.. странно что высота картинка 1088 (!?), по стандарту 1920x1080 должно быть..

а попробуй его в mkv контейнер засунуть.. понадобятся: Yamb (для разбора mp4) и MKVmerge (для сборки mkv).. перекодировать вроде не нужно ничего
__________________
Где купить WD TV: Live Streaming
Написано:  10 Апр 2009 10:19
да прилично рассыпается... на счет высоты картинки тоже заметил что странно выше.
попробуем похимичить с форматом...
Написано:  10 Апр 2009 11:01   Отредактировано: NetSearcher
ничего нет странного что сыпется 1080p + HL@5.0

можно и не качать было.
__________________
REMUX FOREVER

Watching HD on: LCD Sharp 46XL2E, Yamaha RX-V563, Yamaha NS-777, Yamaha NS-333, Yamaha NS-444, Yamaha YST-SW215, WD TV, My Book EE 1 TB (3), HP SE 1.5 ТБ (1)|| DVD watching on: Yamaha DVD-S663|| DVD-Audio, SACD: Onkyo DV-SP504E
Написано:  10 Апр 2009 11:13
Цитата:
ничего нет странного что сыпется 1080p + HL@5.0

Значит любое видео с профилем High@L5.0 будет сыпаться?
У меня даже 720p сыпется с ним
Написано:  10 Апр 2009 11:17
Однозначно уйти от mp4, Yamb в помощь, и потом лучше tsMuxeR_ом запихнуть в m2ts
Написано:  10 Апр 2009 12:16
Еще по Reframes
http://wdtv.wetpaint.com/page/H.264+reference+frames+specs?t=anon
With firmware 1.01.01, the performance is improved:

Normal HD resolutions:
x-1920 Y-800-832@8rf ; 848-928@7rf ; 944-1024@6rf ; 1040-1080@5rf
x-1440 Y-800-832@11rf 848-896@10rf ; 912-960@9rf ; 976-1056@8rf ; 1072-1080@7rf
x-1280 : all 720p labeled videos are fully compatible

Half xHD resolutions:
x-2560 Y-1152@1rf
x-2560 Y-1080@3rf
x-2560 Y-800-816@5rf
x-2560 Y-720@6rf
x-1920 Y-1600@1rf
x-1440 Y-1600@4rf
x-1280 Y-1600@5rf
Написано:  10 Апр 2009 12:25
да вообще непонятно, как с блюрея сняли 1088?!
__________________
Где купить WD TV: Live Streaming
Написано:  10 Апр 2009 12:43
Как внести правку на этом форуме,я чт-то не понял.

Снова о Reframes
Кол-во обрабатываемых Reframes напрямую связано с оперативной памятью. 1920х1080х16 бит  нужно приблизительно 4MB,соответственно  для 5 Reframe нужно порядка 20MB памяти.По информации, основанной на тесте Shizzzon (AVSforum)предпологается,что WD использует приблизительно 25 МБ.,но является ли это ограничением на железном уровне или програмным-вопрос открыт.Это уже к производителю WD.
Отсюда, на данный момент можно сказать, что для 1920х1080 максимально возможно 5-6 Reframes.Конечно существует и еще зависимость от рук риппера и битрейта.

Поделитесь со своими друзьями в соцсетях:

WDTV Forum / Форум про HD фильмы / Эти фильмы не идут / (Anime BD) GHOST IN THE SHELL 2.0 (Blu-ray 1920x1088 x264 AAC crf24 5.1ch)