Неофициальный клуб пользователей HD видео плеера WD TV


»Юзер: »Пароль:   Запомнить? 
WDTV Forum / Форум про HD фильмы / Эти фильмы не идут / Пипл хелп - не проигрываеься каждый второй фильм с торр
Написано:  23 Фев 2010 00:02
Народ, вначале все шло хорошо, сейчас же чуть ли не каждый второй фильм не проигрывается на Live, что обычный, что HD. Пару расшифровок не идущих фильмов:

General
Complete name                    : C:\Movies\Quantum.Of.Solace.2008.BluRay.1080p.DTS.x264.DXVA
Format                           : Matroska
File size                        : 12.2 GiB
Duration                         : 1h 46mn
Overall bit rate                 : 16.5 Mbps
Movie name                       : Quantum.Of.Solace.2008.BluRay.1080p.Rip.DXVA =archi777=
Encoded date                     : UTC 2009-03-13 19:46:37
Writing application              : mkvmerge v2.5.3 ('Boogie') built on Mar  7 2009 15:00:41
Writing library                  : libebml v0.7.7 + libmatroska v0.8.1

Video
ID                               : 1
Format                           : AVC
Format/Info                      : Advanced Video Codec
Format profile                   : High@L4.1
Format settings, CABAC           : Yes
Format settings, ReFrames        : 4 frames
Muxing mode                      : Container profile=Unknown@4.1
Codec ID                         : V_MPEG4/ISO/AVC
Duration                         : 1h 46mn
Bit rate                         : 13.9 Mbps
Width                            : 1 920 pixels
Height                           : 798 pixels
Display aspect ratio             : 2.40:1
Frame rate                       : 23.976 fps
Resolution                       : 8 bits
Colorimetry                      : 4:2:0
Scan type                        : Progressive
Bits/(Pixel*Frame)               : 0.378
Stream size                      : 10.3 GiB (84%)
Writing library                  : x264 core 67 r1127M 8d82fec
Encoding settings                : cabac=1 / ref=4 / deblock=1:-2:-2 / analyse=0x3:0x113 / me=umh / subme=9 / psy_rd=1.1:0.0 / mixed_ref=1 / me_range=24 / chroma_me=1 / trellis=2 / 8x8dct=1 / cqm=0 / deadzone=21,11 / chroma_qp_offset=-2 / threads=6 / nr=0 / decimate=0 / mbaff=0 / bframes=5 / b_pyramid=0 / b_adapt=2 / b_bias=0 / direct=3 / wpredb=1 / keyint=250 / keyint_min=25 / scenecut=40 / rc=crf / crf=20.0 / qcomp=0.60 / qpmin=10 / qpmax=51 / qpstep=4 / vbv_maxrate=38000 / vbv_bufsize=30000 / ip_ratio=1.40 / pb_ratio=1.30 / aq=1:1.00

Audio #1
ID                               : 2
Format                           : DTS
Format/Info                      : Digital Theater Systems
Codec ID                         : A_DTS
Duration                         : 1h 46mn
Bit rate mode                    : Constant
Bit rate                         : 1 510 Kbps
Channel(s)                       : 6 channels
Channel positions                : Front: L C R, Surround: L R, LFE
Sampling rate                    : 48.0 KHz
Resolution                       : 24 bits
Stream size                      : 1.12 GiB (9%)
Title                            : Original DTS
Language                         : English

Audio #2
ID                               : 4
Format                           : DTS
Format/Info                      : Digital Theater Systems
Codec ID                         : A_DTS
Duration                         : 1h 46mn
Bit rate mode                    : Constant
Bit rate                         : 755 Kbps
Channel(s)                       : 6 channels
Channel positions                : Front: L C R, Surround: L R, LFE
Sampling rate                    : 48.0 KHz
Resolution                       : 24 bits
Stream size                      : 573 MiB (5%)
Title                            : Dubbed DTS
Language                         : Russian

Text #1
ID                               : 3
Format                           : UTF-8
Codec ID                         : S_TEXT/UTF8
Codec ID/Info                    : UTF-8 Plain Text
Language                         : English

Text #2
ID                               : 5
Format                           : UTF-8
Codec ID                         : S_TEXT/UTF8
Codec ID/Info                    : UTF-8 Plain Text
Language                         : Russian

Menu
00:00:00.000                     : en:00:00:00.000
00:04:10.125                     : en:00:04:10.125
00:07:27.530                     : en:00:07:27.530
00:10:20.537                     : en:00:10:20.537
00:15:16.833                     : en:00:15:16.833
00:17:47.650                     : en:00:17:47.650
00:20:24.306                     : en:00:20:24.306
00:22:51.370                     : en:00:22:51.370
00:26:28.420                     : en:00:26:28.420
00:29:06.370                     : en:00:29:06.370
00:33:16.912                     : en:00:33:16.912
00:35:48.104                     : en:00:35:48.104
00:39:02.131                     : en:00:39:02.131
00:44:19.156                     : en:00:44:19.156
00:47:21.797                     : en:00:47:21.797
00:52:30.898                     : en:00:52:30.898
00:56:29.011                     : en:00:56:29.011
01:01:17.173                     : en:01:01:17.173
01:04:51.012                     : en:01:04:51.012
01:11:04.802                     : en:01:11:04.802
01:12:34.433                     : en:01:12:34.433
01:17:16.423                     : en:01:17:16.423
01:21:05.694                     : en:01:21:05.694
01:24:17.719                     : en:01:24:17.719
01:29:19.938                     : en:01:29:19.938
01:36:15.520                     : en:01:36:15.520
01:37:59.248                     : en:01:37:59.248
01:41:39.135                     : en:01:41:39.135
01:46:14.118                     : en:01:46:14.118


General
Complete name                    : C:\Movies\Gran.Torino.barm
Format                           : Matroska
File size                        : 1.45 GiB
Duration                         : 1h 56mn
Overall bit rate                 : 1 781 Kbps
Encoded date                     : UTC 2009-06-26 11:47:17
Writing application              : mkvmerge v2.9.5 ('Tu es le seul') built on Jun  7 2009 11:07:07
Writing library                  : libebml v0.7.7 + libmatroska v0.8.1

Video
ID                               : 1
Format                           : AVC
Format/Info                      : Advanced Video Codec
Format profile                   : High@L4.1
Format settings, CABAC           : Yes
Format settings, ReFrames        : 12 frames
Muxing mode                      : Container profile=Unknown@4.1
Codec ID                         : V_MPEG4/ISO/AVC
Duration                         : 1h 56mn
Nominal bit rate                 : 1 384 Kbps
Width                            : 1 040 pixels
Height                           : 432 pixels
Display aspect ratio             : 2.40:1
Frame rate                       : 23.976 fps
Resolution                       : 8 bits
Colorimetry                      : 4:2:0
Scan type                        : Progressive
Bits/(Pixel*Frame)               : 0.128
Title                            : Gran.Torino.2008.Rip.mkv
Writing library                  : x264 core 67 r1171 2c7cb4c
Encoding settings                : cabac=1 / ref=12 / deblock=1:-3:-3 / analyse=0x3:0x133 / me=umh / subme=9 / psy_rd=1.0:0.0 / mixed_ref=1 / me_range=16 / chroma_me=1 / trellis=2 / 8x8dct=1 / cqm=0 / deadzone=21,11 / chroma_qp_offset=-2 / threads=2 / nr=0 / decimate=0 / mbaff=0 / bframes=3 / b_pyramid=1 / b_adapt=1 / b_bias=0 / direct=3 / wpredb=1 / keyint=250 / keyint_min=25 / scenecut=40 / rc=2pass / bitrate=1384 / ratetol=1.0 / qcomp=0.60 / qpmin=10 / qpmax=51 / qpstep=4 / cplxblur=20.0 / qblur=0.5 / ip_ratio=1.40 / pb_ratio=1.30 / aq=1:1.00
Language                         : English

Audio #1
ID                               : 2
Format                           : AAC
Format/Info                      : Advanced Audio Codec
Format version                   : Version 4
Format profile                   : LC
Format settings, SBR             : No
Codec ID                         : A_AAC
Duration                         : 1h 56mn
Channel(s)                       : 6 channels
Channel positions                : Front: L C R, Rear: L R, LFE
Sampling rate                    : 48.0 KHz
Title                            : Gran.Torino.2008.Rus.m4a
Language                         : Russian

Audio #2
ID                               : 3
Format                           : AAC
Format/Info                      : Advanced Audio Codec
Format version                   : Version 4
Format profile                   : LC
Format settings, SBR             : No
Codec ID                         : A_AAC
Duration                         : 1h 56mn
Channel(s)                       : 6 channels
Channel positions                : Front: L C R, Rear: L R, LFE
Sampling rate                    : 48.0 KHz
Title                            : Gran.Torino.2008.Eng.m4a
Language                         : English

Text #1
ID                               : 4
Format                           : UTF-8
Codec ID                         : S_TEXT/UTF8
Codec ID/Info                    : UTF-8 Plain Text
Title                            : Forced.Rus
Language                         : Russian

Text #2
ID                               : 5
Format                           : UTF-8
Codec ID                         : S_TEXT/UTF8
Codec ID/Info                    : UTF-8 Plain Text
Title                            : Notabenoid.Rus
Language                         : Russian

Text #3
ID                               : 6
Format                           : UTF-8
Codec ID                         : S_TEXT/UTF8
Codec ID/Info                    : UTF-8 Plain Text
Title                            : Newdeaf.Rus
Language                         : Russian

Text #4
ID                               : 7
Format                           : UTF-8
Codec ID                         : S_TEXT/UTF8
Codec ID/Info                    : UTF-8 Plain Text
Title                            : R5.Rus
Language                         : Russian

Text #5
ID                               : 8
Format                           : UTF-8
Codec ID                         : S_TEXT/UTF8
Codec ID/Info                    : UTF-8 Plain Text
Title                            : Ren.Rus
Language                         : Russian

Text #6
ID                               : 9
Format                           : UTF-8
Codec ID                         : S_TEXT/UTF8
Codec ID/Info                    : UTF-8 Plain Text
Title                            : Forced.Eng
Language                         : English

Text #7
ID                               : 10
Format                           : UTF-8
Codec ID                         : S_TEXT/UTF8
Codec ID/Info                    : UTF-8 Plain Text
Title                            : English
Language                         : English

Menu #1
00:00:00.054                     : en:00:00:00.054

Menu #2
00:00:00.054                     : en:00:00:00.054


General
Complete name                    : C:\Movies\Koren.vsego.zla.2010.P.DVDRip.ELEKTRI4KA.avi.ru]
Format                           : AVI
Format/Info                      : Audio Video Interleave
File size                        : 1.36 GiB
Duration                         : 1h 48mn
Overall bit rate                 : 1 801 Kbps
Movie name                       : Ca$h (2010)
Director                         : ELEKTRI4KA
Writing application              : VirtualDubMod 1.5.4.1 (build 2178/release)
Copyright                        : http://uniongang.ru/

Video
ID                               : 0
Format                           : MPEG-4 Visual
Format profile                   : Advanced Simple@L5
Format settings, BVOP            : Yes
Format settings, QPel            : No
Format settings, GMC             : No warppoints
Format settings, Matrix          : Default (H.263)
Muxing mode                      : Packed bitstream
Codec ID                         : XVID
Codec ID/Hint                    : XviD
Duration                         : 1h 48mn
Bit rate                         : 1 632 Kbps
Width                            : 640 pixels
Height                           : 464 pixels
Display aspect ratio             : 1.379
Frame rate                       : 23.976 fps
Resolution                       : 8 bits
Colorimetry                      : 4:2:0
Scan type                        : Progressive
Bits/(Pixel*Frame)               : 0.229
Stream size                      : 1.23 GiB (91%)
Writing library                  : XviD 1.2.0.dev47 (UTC 2006-11-01)

Audio
ID                               : 1
Format                           : MPEG Audio
Format version                   : Version 1
Format profile                   : Layer 3
Mode                             : Joint stereo
Format_Settings_ModeExtension    : MS Stereo
Codec ID                         : 55
Codec ID/Hint                    : MP3
Duration                         : 1h 47mn
Bit rate mode                    : Constant
Bit rate                         : 160 Kbps
Channel(s)                       : 2 channels
Sampling rate                    : 48.0 KHz
Stream size                      : 123 MiB (9%)
Alignment                        : Aligned on interleaves
Interleave, duration             : 42 ms (1.00 video frame)
Interleave, preload duration     : 504 ms


Заранее спасибо за помощь!
Написано:  23 Фев 2010 00:29
Уточню - девайс не видит эти самые фильмы на харде...
Написано:  23 Фев 2010 01:01   Отредактировано: Lyolique
Complete name                    : C:\Movies\Koren.vsego.zla.2010.P.DVDRip.ELEKTRI4KA.avi.ru]

Это точно имя файла? ИМХО, файл с расширением .avi.ru]  - точно играть и видеть не будет.
(ровно так же, как и DXVA и barm)
__________________
WDTV Gen2
Написано:  01 Мар 2010 01:43
Ну да - так выдает медиаинфо, и по-моему уже становится тенденцией то, что все новые фильмы приставка на харде не видит... не понимаю...
Написано:  01 Мар 2010 09:18
виноваты выложившие если все нормально показывает,то в конце просто нет расширения из-за этого плеер и ругается,вообщем релизеры фиговые
__________________
Sharp LC-32X20RU + WDTV Gen2 + WDTV Live (если понравилось 41001352107159 яндекс)
Написано:  01 Мар 2010 10:35
Asko, как тебе уже сказали - расширения файлов должны быть нормальными и соответствовать формату! .DXVA - это полная фигня! переименуй в .mkv этот файл - и всё пойдёт!

насчёт авишки - не факт! но попробовать нормальное расширение ему дать - это первый шаг вообще!
__________________
Где купить WD TV: Live Streaming
Написано:  01 Мар 2010 16:47
touch - пасиб конечно, но переименование не помогает, уже обпереименовался, mkv тоже не видит на харде... уже и хард переформатировал и что токо не делал... скачиваю другой релиз в HD одного и того же фильма - та же фигня...
Написано:  01 Мар 2010 17:04
идем в панель управления,свойства папки и снимаем галочку с скрывать расширения для зарегестрированных типов файлов и еще раз переименовываем
__________________
Sharp LC-32X20RU + WDTV Gen2 + WDTV Live (если понравилось 41001352107159 яндекс)

Поделитесь со своими друзьями в соцсетях:

WDTV Forum / Форум про HD фильмы / Эти фильмы не идут / Пипл хелп - не проигрываеься каждый второй фильм с торр