Неофициальный клуб пользователей HD видео плеера WD TV


»Юзер: »Пароль:   Запомнить? 
WDTV Forum / Форум про WD TV Gen1 / Опыт эксплуатации / Странности с MKV на WDTV-1
Написано:  17 Фев 2010 00:21
WDTV-1 (1.03.1) Нашёл, наконец-то, любимый фильм без ужасающего перевода только с субтитрами в HD (MKV):
General
Complete name                    : I:\Novyj.kinoteatr.Paradizo.1988.XviD.BDRip.720p.mkv
Format                           : Matroska
File size                        : 4.02 GiB
Duration                         : 2h 3mn
Overall bit rate                 : 4 657 Kbps
Encoded date                     : UTC 2009-11-19 23:15:48
Writing application              : mkvmerge v2.9.8 ('C'est le bon') built on Aug 13 2009 12:49:06
Writing library                  : libebml v0.7.7 + libmatroska v0.8.1

Video
ID                               : 1
Format                           : MPEG-4 Visual
Format profile                   : Advanced Simple@L5
Format settings, BVOP            : Yes
Format settings, QPel            : No
Format settings, GMC             : No warppoints
Format settings, Matrix          : Default (H.263)
Codec ID                         : V_MPEG4/ISO/ASP
Codec ID/Info                    : Advanced Simple Profile
Duration                         : 2h 3mn
Bit rate                         : 4 244 Kbps
Width                            : 1 280 pixels
Height                           : 720 pixels
Display aspect ratio             : 16:9
Frame rate                       : 25.000 fps
Resolution                       : 8 bits
Colorimetry                      : 4:2:0
Scan type                        : Progressive
Bits/(Pixel*Frame)               : 0.184
Stream size                      : 3.67 GiB (91%)
Writing library                  : XviD 1.2.0.dev47 (UTC 2006-11-01)
Language                         : English

Audio
ID                               : 2
Format                           : MPEG Audio
Format version                   : Version 1
Format profile                   : Layer 3
Mode                             : Joint stereo
Format_Settings_ModeExtension    : MS Stereo
Codec ID                         : A_MPEG/L3
Codec ID/Hint                    : MP3
Duration                         : 2h 3mn
Bit rate mode                    : Constant
Bit rate                         : 320 Kbps
Channel(s)                       : 2 channels
Sampling rate                    : 48.0 KHz
Stream size                      : 283 MiB (7%)
Writing library                  : LAME3.96.1
Language                         : English

Text
ID                               : 3
Format                           : ASS
Codec ID                         : S_TEXT/ASS
Codec ID/Info                    : Advanced Sub Station Alpha
Language                         : Russian

На компе идёт нормально. На WDTV - идёт только звук, видео нет - чёрный экран.
Подскажите, что в этом MKV не так. И что можно сделать, желательно не пережимая? Спасибо.
Написано:  17 Фев 2010 00:25   Отредактировано: touch
а где качал?
кинь ссылку, завтра попробую разобраться.. это из-за xvid (MPEG-4 Visual), наверное! как вариант, попробовать его в обычный avi запихнуть
__________________
Где купить WD TV: Live Streaming
Написано:  17 Фев 2010 06:55
кинозалтв
Написано:  24 Фев 2010 22:21   Отредактировано: WERWOLF
Надо менять кодек на MPEG Video, или AVC. Был у меня фильм с таким кодеком - MPEG-4 Visual. Те же симптомчики присутствовали. Перекодировал фильм с кодеком AVC/H.264 и всё пришло в норму.
__________________
Man kann es nicht allen recht machen!
Написано:  06 Мар 2010 03:23
Уважаемый WERWOLF, спасибо! А можно поконкретнее - Чем лучше и с какими параметрами перекодировать, чтобы сохранилось изначальное качество?
Написано:  06 Мар 2010 20:37
Да на первом вдтв MPEG-4 Visual прекрасно читается,у самого полно таких фильмов встречается и идут без косяков.
Написано:  07 Мар 2010 12:28
Цитата:
Да на первом вдтв MPEG-4 Visual прекрасно читается,у самого полно таких фильмов встречается и идут без косяков.

Этому могут быть четыре объяснения:1. Вы обладатель уникального аппарата, или прошивки. 2. Вы не учли, что это MKV, а не AVI или MP4, где MPEG-4 Visual читается нормально. 3. Вы перепутали MPEG Visual с MPEG Video.4. Если Ваши файлы записаны в формате MKV c кодеком MPEG-4 Visual и читаются нормально, значит они имеют следующие характеристики кодека:[img][/img]
Не подумайте, что я сомневаюсь в Ваших интеллектуальных способностях. Просто бывает, что ключевые моменты ускользают от внимания. Едем дальше. Только что перекодировал файл MKV/H.264/AVC в MKV/MPEG-4 Visual, в двух вариантах (с использованием разных библиотек кодирования). (Третий вариант кодирования не нуждается в проверке - с DivX всё будет воспроизводится без проблем). Результат: звук есть, видео отсутствует. Так что, кодек менять придётся в любом случае.
__________________
Man kann es nicht allen recht machen!
Написано:  07 Мар 2010 13:26
Цитата:
Чем лучше и с какими параметрами перекодировать, чтобы сохранилось изначальное качество?

Если Вы недостаточно подготовлены в области видеокодирования, и Вам незнакомы такие понятия, как квантизация или контрольная сумма битрейта (это просто, как пример), то лучше воспользоваться распространёнными конвертерами: 1. Tipard MKV Video Converter 4.2.08 (конвертирует быстро и хорошо, но есть и недостаток - разрешение вручную выставить можно, а битрейт только из предустановленных значений). 2. Axara Video Converter 3.5.1.767 (вещичка посерьёзнее, но и кодирует гораздо дольше). 3. AVS Video Converter 6.4.1.416 (почти аналог Axara). Но у них один общий серьёзный недостаток: невозможность кодировки звука 5.1. Только "стерео". Ваш файл имеет двухканальный звук, так что в данном случае эти конвертеры подойдут. Я тоже конвертировал файл с двухканальным звуком, поэтому подбором конвертера не заморачивался. При конвертации сохраните все исходные данные, кроме кодека (изменить на H.264/AVC) и битрейта видеопотока. Его придётся слегка увеличить (в Вашем случае - до 4800-5000 Kbps), чтобы минимизировать потери при кодировании. А ещё лучше - изъять аудиодорожку с понравившимся Вам переводом и субтитры, скачать файл MKV в хорошем качестве с "правильным" кодеком и перебрать контейнер, удалив ненужный звук и всё остальное, добавив только желаемое.
__________________
Man kann es nicht allen recht machen!

Поделитесь со своими друзьями в соцсетях:

WDTV Forum / Форум про WD TV Gen1 / Опыт эксплуатации / Странности с MKV на WDTV-1