Неофициальный клуб пользователей HD видео плеера WD TV


»Юзер: »Пароль:   Запомнить? 
WDTV Forum / Форум про WD TV Gen1 / Опыт эксплуатации / Помогите с форматом MOV на WDTV 1
Написано:  16 Фев 2010 11:40   Отредактировано: vhs2006
Друзья! К сожалению, я очень плохо разбираюсь в кодеках HD. Есть китайская флэш-видеокамера, которая пишет вот в таком формате:
General
Complete name                    : D:\ \FILE0009.MOV
Format                           : MPEG-4
Format profile                   : QuickTime
Codec ID                         : qt 
File size                        : 72.8 MiB
Duration                         : 1mn 35s
Overall bit rate                 : 6 415 Kbps
Encoded date                     : UTC 2010-02-13 17:18:51
Tagged date                      : UTC 2010-02-13 17:18:51
AMBA                             : 

Video
ID                               : 1
Format                           : AVC
Format/Info                      : Advanced Video Codec
Codec ID                         : avc1
Codec ID/Info                    : Advanced Video Coding
Duration                         : 1mn 35s
Bit rate mode                    : Variable
Bit rate                         : 0
Maximum bit rate                 : 0
Width                            : 1 920 pixels
Height                           : 1 080 pixels
Display aspect ratio             : 16:9
Frame rate mode                  : Constant
Frame rate                       : 29.970 fps
Stream size                      : 68.4 MiB (94%)
Title                            : Ambarella AVC / Ambarella AVC
Language                         : English
Encoded date                     : UTC 2010-02-13 17:18:51
Tagged date                      : UTC 2010-02-13 17:18:51

Audio
ID                               : 2
Format                           : ADPCM
Codec ID                         : 11
Codec ID/Hint                    : Intel
Duration                         : 1mn 35s
Bit rate mode                    : Constant
Bit rate                         : 384 Kbps
Channel(s)                       : 2 channels
Sampling rate                    : 48.0 KHz
Stream size                      : 4.35 MiB (6%)
Title                            : Ambarella AAC / Ambarella AAC
Language                         : English
Encoded date                     : UTC 2010-02-13 17:18:51
Tagged date                      : UTC 2010-02-13 17:18:51

Если достаточно света, качество просто замечательное.
Это видео нормально проигрывается на WDTV 1 поколения (прошивка 1.03.1)без звука, конечно...

Попытался программой SUPER@ конвертнуть звук в AAC, оставив видео direct stream copy  и вот тут начались странности: ни один вариант звука для MOV из SUPER@ не подходит. WDTV пишет, что либо формат не поддерживается, либо показывает без звука, либо со звуком, но останавливается через некоторое время в произвольной части файла.
Пытался конвертировать ею же в MKV - видео есть всегда, со звуком то же самое.

Может быть, есть другая программа конвертации только звука, которая делает это правильнее? Спасибо!.
Написано:  16 Фев 2010 12:41   Отредактировано: touch
качай программку mp4cam2avi.. перекодирует mov'ы в нормально читаемые avi
для звука - делай mp3 спокойно
всё равно звук с камеры - это полная фигня )
__________________
Где купить WD TV: Live Streaming
Написано:  17 Фев 2010 00:06
Большое спасибо, touch, теперь всё играется со звуком!!!

Поделитесь со своими друзьями в соцсетях:

WDTV Forum / Форум про WD TV Gen1 / Опыт эксплуатации / Помогите с форматом MOV на WDTV 1