Неофициальный клуб пользователей HD видео плеера WD TV


»Юзер: »Пароль:   Запомнить? 
WDTV Forum / Форум про WD TV Gen1 / Опыт эксплуатации / Вчера aiv воспроизводился, сегодня нет!!!
Написано:  06 Фев 2010 17:21
Проблема! Вчера я сматрел кино в aiv файле, а сегодня другу хотел показать. пишит ошибка формата. в чем дело ? вот инфа по файлу:
G:\Видео\Российские фильмы\Новые приключения Бабки Ежки.avi
   General
      Complete name : G:\Видео\Российские фильмы\Новые приключения Бабки Ежки.avi
      Format : AVI
      Format/Info : Audio Video Interleave
      File size : 1.43 GiB
      Duration : 1h 12mn
      Overall bit rate : 2 811 Kbps
      Writing library : VirtualDub-MPEG2 build 24586/release
   Video #0
      ID : 0
      Format : MPEG-4 Visual
      Format settings, BVOP : No
      Format settings, QPel : No
      Format settings, GMC : No warppoints
      Format settings, Matrix : Default (H.263)
      Codec ID : DX50
      Codec ID/Hint : DivX 5
      Duration : 1h 12mn
      Bit rate : 2 481 Kbps
      Width : 720 pixels
      Height : 400 pixels
      Display aspect ratio : 16:9
      Frame rate : 25.000 fps
      Resolution : 24 bits
      Colorimetry : 4:2:0
      Scan type : Progressive
      Bits/(Pixel*Frame) : 0.345
      Stream size : 1.26 GiB (88%)
      Writing library : DivX 6.8.0 (UTC 2007-12-04)
   Audio #1
      ID : 1
      Format : AC-3
      Format/Info : Audio Coding 3
      Format profile : Dual Mono
      Codec ID : 2000
      Duration : 1h 12mn
      Bit rate mode : Constant
      Bit rate : 320 Kbps
      Channel(s) : 2 channels
      Channel positions : L R
      Sampling rate : 48.0 KHz
      Stream size : 167 MiB (11%)
      Alignment : Aligned on interleaves
      Interleave, duration : 40 ms (1.00 video frame)
      Interleave, preload duration : 512 ms
Написано:  06 Фев 2010 17:35
заново перекопировать(пару раз) если не поможет,отформатировать жесткий(флешку) с которой смотрится (не забыв предварительно сохранив нужные данные)
__________________
Sharp LC-32X20RU + WDTV Gen2 + WDTV Live (если понравилось 41001352107159 яндекс)
Написано:  06 Фев 2010 17:45
может просто жесткий отфрагментировать ? так не лучше ?
Написано:  06 Фев 2010 17:49
дефрагментация тоже не так уж быстро длится
__________________
Sharp LC-32X20RU + WDTV Gen2 + WDTV Live (если понравилось 41001352107159 яндекс)
Написано:  06 Фев 2010 18:05
блин! просто эта проблема у меня уже не тока с этим файлом таких штук десять ! надоело просто! кино посматрел, потом жена грит ада посмотрим а он зараза пишет ошибку! так че мне делать то ? еще этот mkv  не хочет играть :
G:\HD кино\Возвращение Супермена (лицензия HDTV 5.1).mkv
   General
      Complete name : G:\HD кино\Возвращение Супермена (лицензия HDTV 5.1).mkv
      Format : AVI
      Format/Info : Audio Video Interleave
      Format profile : OpenDML
      File size : 4.30 GiB
      Duration : 2h 27mn
      Overall bit rate : 4 158 Kbps
      Movie name : Возвращение Супермена.mkv
      Director : created.with.SUPER(C).v2007.bld.21
      Writing application : VirtualDubMod 1.5.10.2 (build 2542/release)
      Writing library : VirtualDubMod build 2542/release
   Video #0
      ID : 0
      Format : MPEG-4 Visual
      Format profile : Simple@L3
      Format settings, BVOP : No
      Format settings, QPel : No
      Format settings, GMC : No warppoints
      Format settings, Matrix : Default (H.263)
      Codec ID : XVID
      Codec ID/Hint : XviD
      Duration : 2h 27mn
      Bit rate : 3 765 Kbps
      Width : 1 280 pixels
      Height : 528 pixels
      Display aspect ratio : 2.40:1
      Frame rate : 25.000 fps
      Resolution : 24 bits
      Colorimetry : 4:2:0
      Scan type : Progressive
      Bits/(Pixel*Frame) : 0.223
      Stream size : 3.89 GiB (91%)
      Writing library : XviD 1.2.0.dev47 (UTC 2006-11-01)
   Audio #1
      ID : 1
      Format : AC-3
      Format/Info : Audio Coding 3
      Codec ID : 2000
      Duration : 2h 27mn
      Bit rate mode : Constant
      Bit rate : 384 Kbps
      Channel(s) : 6 channels
      Channel positions : Front: L C R, Surround: L R, LFE
      Sampling rate : 48.0 KHz
      Stream size : 406 MiB (9%)
      Alignment : Split accross interleaves
      Interleave, duration : 40 ms (1.00 video frame)
      Interleave, preload duration : 500 ms
Написано:  06 Фев 2010 18:26
хы этот форматом не соппадает вместо мкв на конце должно быть avi
__________________
Sharp LC-32X20RU + WDTV Gen2 + WDTV Live (если понравилось 41001352107159 яндекс)
Написано:  07 Фев 2010 07:53
Отлично!!! наконец то получилось. фильм этот пошел! Он был раньше в avi, но не играл.Я вчера провел дефрагментацию диска 250 гигов. фильм перевел в av, теперь сматрю!!! Но вот эти фильмы и после дефрагментации не показывают. WD их просто перелистывает.Я их раньше на WD сматрел. Че делать??? Вот инфа:
D:\Ночь бойца (2009) DVDRip.avi
   General
      Complete name : D:\Ночь бойца (2009) DVDRip.avi
      Format : AVI
      Format/Info : Audio Video Interleave
      File size : 1.36 GiB
      Duration : 1h 27mn
      Overall bit rate : 2 220 Kbps
      Writing application : VirtualDubMod 1.5.10.2 (build 2540/release)
      Writing library : VirtualDubMod build 2540/release
   Video #0
      ID : 0
      Format : MPEG-4 Visual
      Format profile : Simple@L3
      Format settings, BVOP : Yes
      Format settings, QPel : No
      Format settings, GMC : No warppoints
      Format settings, Matrix : Default (H.263)
      Muxing mode : Packed bitstream
      Codec ID : XVID
      Codec ID/Hint : XviD
      Duration : 1h 27mn
      Bit rate : 1 762 Kbps
      Width : 704 pixels
      Height : 288 pixels
      Display aspect ratio : 2.40:1
      Frame rate : 25.000 fps
      Resolution : 24 bits
      Colorimetry : 4:2:0
      Scan type : Progressive
      Bits/(Pixel*Frame) : 0.348
      Stream size : 1.08 GiB (79%)
      Writing library : XviD 1.0.2 (UTC 2004-08-29)
   Audio #1
      ID : 1
      Format : AC-3
      Format/Info : Audio Coding 3
      Codec ID : 2000
      Duration : 1h 27mn
      Bit rate mode : Constant
      Bit rate : 448 Kbps
      Channel(s) : 6 channels
      Channel positions : Front: L C R, Surround: L R, LFE
      Sampling rate : 48.0 KHz
      Stream size : 282 MiB (20%)
      Alignment : Split accross interleaves
      Interleave, duration : 40 ms (1.00 video frame)
      Interleave, preload duration : 500 ms

D:\Обитаемый остров  Схватка..avi
   General
      Complete name : D:\Обитаемый остров  Схватка..avi
      Format : AVI
      Format/Info : Audio Video Interleave
      File size : 703 MiB
      Duration : 1h 35mn
      Overall bit rate : 1 031 Kbps
      Writing application : VirtualDubMod 1.5.10.2 (build 2542/release)
      Writing library : VirtualDubMod build 2542/release
   Video #0
      ID : 0
      Format : MPEG-4 Visual
      Format profile : AdvancedSimple@L5
      Format settings, BVOP : Yes
      Format settings, QPel : No
      Format settings, GMC : No warppoints
      Format settings, Matrix : Default (MPEG)
      Muxing mode : Packed bitstream
      Codec ID : XVID
      Codec ID/Hint : XviD
      Duration : 1h 35mn
      Bit rate : 910 Kbps
      Width : 608 pixels
      Height : 256 pixels
      Display aspect ratio : 2.35:1
      Frame rate : 25.000 fps
      Resolution : 24 bits
      Colorimetry : 4:2:0
      Scan type : Progressive
      Bits/(Pixel*Frame) : 0.234
      Stream size : 620 MiB (88%)
      Writing library : XviD 1.2.0.dev47 (UTC 2006-11-01)
   Audio #1
      ID : 1
      Format : MPEG Audio
      Format version : Version 1
      Format profile : Layer 3
      Codec ID : 55
      Codec ID/Hint : MP3
      Duration : 1h 35mn
      Bit rate mode : Constant
      Bit rate : 112 Kbps
      Channel(s) : 2 channels
      Sampling rate : 48.0 KHz
      Resolution : 16 bits
      Stream size : 76.3 MiB (11%)
      Alignment : Aligned on interleaves
      Interleave, duration : 40 ms (1.00 video frame)
      Interleave, preload duration : 504 ms


D:\Обреченные на войну.avi
   General
      Complete name : D:\Обреченные на войну.avi
      Format : AVI
      Format/Info : Audio Video Interleave
      File size : 1.37 GiB
      Duration : 1h 28mn
      Overall bit rate : 2 205 Kbps
      Writing application : VirtualDubMod 1.5.10.2 (build 2540/release)
      Writing library : VirtualDubMod build 2540/release
   Video #0
      ID : 0
      Format : MPEG-4 Visual
      Format profile : Simple@L3
      Format settings, BVOP : Yes
      Format settings, QPel : No
      Format settings, GMC : No warppoints
      Format settings, Matrix : Default (H.263)
      Muxing mode : Packed bitstream
      Codec ID : XVID
      Codec ID/Hint : XviD
      Duration : 1h 28mn
      Bit rate : 1 747 Kbps
      Width : 704 pixels
      Height : 288 pixels
      Display aspect ratio : 2.40:1
      Frame rate : 25.000 fps
      Resolution : 24 bits
      Colorimetry : 4:2:0
      Scan type : Progressive
      Bits/(Pixel*Frame) : 0.345
      Stream size : 1.08 GiB (79%)
      Writing library : XviD 1.0.2 (UTC 2004-08-29)
   Audio #1
      ID : 1
      Format : AC-3
      Format/Info : Audio Coding 3
      Codec ID : 2000
      Duration : 1h 28mn
      Bit rate mode : Constant
      Bit rate : 448 Kbps
      Channel(s) : 6 channels
      Channel positions : Front: L C R, Surround: L R, LFE
      Sampling rate : 48.0 KHz
      Stream size : 284 MiB (20%)
      Alignment : Split accross interleaves
      Interleave, duration : 40 ms (1.00 video frame)
      Interleave, preload duration : 500 ms

D:\Отдамся в хорошие руки (2009) DVDRip.avi
   General
      Complete name : D:\Отдамся в хорошие руки (2009) DVDRip.avi
      Format : AVI
      Format/Info : Audio Video Interleave
      File size : 1.37 GiB
      Duration : 1h 42mn
      Overall bit rate : 1 912 Kbps
      Writing application : VirtualDubMod 1.5.4.1 (build 2178/release)
      Writing library : VirtualDubMod build 2178/release
   Video #0
      ID : 0
      Format : MPEG-4 Visual
      Format profile : AdvancedSimple@L5
      Format settings, BVOP : Yes
      Format settings, QPel : No
      Format settings, GMC : No warppoints
      Format settings, Matrix : Custom
      Codec ID : XVID
      Codec ID/Hint : XviD
      Duration : 1h 42mn
      Bit rate : 1 454 Kbps
      Width : 704 pixels
      Height : 304 pixels
      Display aspect ratio : 2.35:1
      Frame rate : 25.000 fps
      Resolution : 24 bits
      Colorimetry : 4:2:0
      Scan type : Progressive
      Bits/(Pixel*Frame) : 0.272
      Stream size : 1.04 GiB (76%)
      Writing library : XviD 1.2.0.dev47 (UTC 2006-11-01)
   Audio #1
      ID : 1
      Format : AC-3
      Format/Info : Audio Coding 3
      Codec ID : 2000
      Duration : 1h 42mn
      Bit rate mode : Constant
      Bit rate : 448 Kbps
      Channel(s) : 6 channels
      Channel positions : Front: L C R, Surround: L R, LFE
      Sampling rate : 48.0 KHz
      Video delay : 200ms
      Stream size : 328 MiB (23%)
      Alignment : Split accross interleaves
      Interleave, duration : 40 ms (1.00 video frame)
      Interleave, preload duration : 500 ms

D:\Первая любовь (2009).avi
   General
      Complete name : D:\Первая любовь (2009).avi
      Format : AVI
      Format/Info : Audio Video Interleave
      File size : 1.37 GiB
      Duration : 1h 28mn
      Overall bit rate : 2 219 Kbps
      Movie name : Pervaja ljubov (2009)
      Director : ELEKTRI4KA [uniongang.ru]
      Writing application : VirtualDubMod 1.5.4.1 (build 2178/release)
      Copyright : http://uniongang.ru/
   Video #0
      ID : 0
      Format : MPEG-4 Visual
      Format profile : AdvancedSimple@L5
      Format settings, BVOP : Yes
      Format settings, QPel : No
      Format settings, GMC : No warppoints
      Format settings, Matrix : Default (MPEG)
      Muxing mode : Packed bitstream
      Codec ID : XVID
      Codec ID/Hint : XviD
      Duration : 1h 28mn
      Bit rate : 1 825 Kbps
      Width : 704 pixels
      Height : 368 pixels
      Display aspect ratio : 1.913
      Frame rate : 25.000 fps
      Resolution : 24 bits
      Colorimetry : 4:2:0
      Scan type : Progressive
      Bits/(Pixel*Frame) : 0.282
      Stream size : 1.12 GiB (82%)
      Writing library : XviD 1.2.0.dev47 (UTC 2006-11-01)
   Audio #1
      ID : 1
      Format : AC-3
      Format/Info : Audio Coding 3
      Codec ID : 2000
      Duration : 1h 28mn
      Bit rate mode : Constant
      Bit rate : 384 Kbps
      Channel(s) : 6 channels
      Channel positions : Front: L C R, Surround: L R, LFE
      Sampling rate : 48.0 KHz
      Stream size : 242 MiB (17%)
      Alignment : Split accross interleaves
      Interleave, duration : 40 ms (1.00 video frame)
      Interleave, preload duration : 500 ms

D:\пикап. съем без правил.2009.O.DVDRip.avi
   General
      Complete name : D:\пикап. съем без правил.2009.O.DVDRip.avi
      Format : AVI
      Format/Info : Audio Video Interleave
      File size : 1.36 GiB
      Duration : 1h 17mn
      Overall bit rate : 2 516 Kbps
      Writing application : VirtualDubMod 1.5.10.2 (build 2540/release)
      Writing library : VirtualDubMod build 2540/release
   Video #0
      ID : 0
      Format : MPEG-4 Visual
      Format profile : AdvancedSimple@L5
      Format settings, BVOP : Yes
      Format settings, QPel : No
      Format settings, GMC : No warppoints
      Format settings, Matrix : Custom
      Codec ID : XVID
      Codec ID/Hint : XviD
      Duration : 1h 17mn
      Bit rate : 2 059 Kbps
      Width : 720 pixels
      Height : 304 pixels
      Display aspect ratio : 2.35:1
      Frame rate : 25.000 fps
      Resolution : 24 bits
      Colorimetry : 4:2:0
      Scan type : Progressive
      Bits/(Pixel*Frame) : 0.376
      Stream size : 1.12 GiB (82%)
      Writing library : XviD 1.2.1 (UTC 2008-12-04)
   Audio #1
      ID : 1
      Format : AC-3
      Format/Info : Audio Coding 3
      Codec ID : 2000
      Duration : 1h 17mn
      Bit rate mode : Constant
      Bit rate : 448 Kbps
      Channel(s) : 6 channels
      Channel positions : Front: L C R, Surround: L R, LFE
      Sampling rate : 48.0 KHz
      Stream size : 249 MiB (18%)
      Alignment : Aligned on interleaves
      Interleave, duration : 40 ms (1.00 video frame)
      Interleave, preload duration : 512 ms

D:\Путь (2009).avi
   General
      Complete name : D:\Путь (2009).avi
      Format : AVI
      Format/Info : Audio Video Interleave
      File size : 1.36 GiB
      Duration : 1h 40mn
      Overall bit rate : 1 947 Kbps
      Movie name : Put (2009)
      Director : ELEKTRI4KA [uniongang.ru]
      Writing application : VirtualDubMod 1.5.10.2 (build 2540/release)
      Copyright : http://uniongang.ru/
   Video #0
      ID : 0
      Format : MPEG-4 Visual
      Format profile : AdvancedSimple@L5
      Format settings, BVOP : Yes
      Format settings, QPel : No
      Format settings, GMC : No warppoints
      Format settings, Matrix : Default (H.263)
      Codec ID : XVID
      Codec ID/Hint : XviD
      Duration : 1h 40mn
      Bit rate : 1 745 Kbps
      Width : 704 pixels
      Height : 368 pixels
      Display aspect ratio : 1.913
      Frame rate : 25.000 fps
      Resolution : 24 bits
      Colorimetry : 4:2:0
      Scan type : Progressive
      Bits/(Pixel*Frame) : 0.269
      Stream size : 1.22 GiB (90%)
      Writing library : XviD 1.2.0.dev47 (UTC 2006-11-01)
   Audio #1
      ID : 1
      Format : MPEG Audio
      Format version : Version 1
      Format profile : Layer 3
      Codec ID : 55
      Codec ID/Hint : MP3
      Duration : 1h 40mn
      Bit rate mode : Constant
      Bit rate : 192 Kbps
      Channel(s) : 2 channels
      Sampling rate : 48.0 KHz
      Resolution : 16 bits
      Stream size : 138 MiB (10%)
      Alignment : Aligned on interleaves
      Interleave, duration : 40 ms (1.00 video frame)
      Interleave, preload duration : 504 ms
      Writing library : LAME3.97
      Encoding settings : -m s -V 4 -q 2 -lowpass 18.6 -b 192

D:\Чудо (2009) [DVDRip].avi
   General
      Complete name : D:\Чудо (2009) [DVDRip].avi
      Format : AVI
      Format/Info : Audio Video Interleave
      File size : 1.37 GiB
      Duration : 1h 50mn
      Overall bit rate : 1 773 Kbps
      Writing application : VirtualDubMod 1.5.10.2 (build 2540/release)
      Writing library : VirtualDubMod build 2540/release
   Video #0
      ID : 0
      Format : MPEG-4 Visual
      Format profile : AdvancedSimple@L5
      Format settings, BVOP : Yes
      Format settings, QPel : No
      Format settings, GMC : No warppoints
      Format settings, Matrix : Default (MPEG)
      Muxing mode : Packed bitstream
      Codec ID : XVID
      Codec ID/Hint : XviD
      Duration : 1h 50mn
      Bit rate : 1 315 Kbps
      Width : 704 pixels
      Height : 384 pixels
      Display aspect ratio : 16:9
      Frame rate : 25.000 fps
      Resolution : 24 bits
      Colorimetry : 4:2:0
      Scan type : Progressive
      Bits/(Pixel*Frame) : 0.195
      Stream size : 1.01 GiB (74%)
      Writing library : XviD 1.1.2 (UTC 2006-11-01)
   Audio #1
      ID : 1
      Format : AC-3
      Format/Info : Audio Coding 3
      Codec ID : 2000
      Duration : 1h 50mn
      Bit rate mode : Constant
      Bit rate : 448 Kbps
      Channel(s) : 6 channels
      Channel positions : Front: L C R, Surround: L R, LFE
      Sampling rate : 48.0 KHz
      Stream size : 354 MiB (25%)
      Alignment : Split accross interleaves
      Interleave, duration : 40 ms (1.00 video frame)
      Interleave, preload duration : 500 ms

D:\Человек, который знал все.avi
   General
      Complete name : D:\Человек, который знал все.avi
      Format : AVI
      Format/Info : Audio Video Interleave
      File size : 1.37 GiB
      Duration : 1h 42mn
      Overall bit rate : 1 906 Kbps
      Writing application : VirtualDubMod 1.5.10.2 (build 2540/release)
      Writing library : VirtualDubMod build 2540/release
   Video #0
      ID : 0
      Format : MPEG-4 Visual
      Format profile : AdvancedSimple@L5
      Format settings, BVOP : Yes
      Format settings, QPel : No
      Format settings, GMC : No warppoints
      Format settings, Matrix : Default (H.263)
      Muxing mode : Packed bitstream
      Codec ID : XVID
      Codec ID/Hint : XviD
      Duration : 1h 42mn
      Bit rate : 1 448 Kbps
      Width : 704 pixels
      Height : 288 pixels
      Display aspect ratio : 2.40:1
      Frame rate : 25.000 fps
      Resolution : 24 bits
      Colorimetry : 4:2:0
      Scan type : Progressive
      Bits/(Pixel*Frame) : 0.286
      Stream size : 1.04 GiB (76%)
      Writing library : XviD 1.1.2 (UTC 2006-11-01)
   Audio #1
      ID : 1
      Format : AC-3
      Format/Info : Audio Coding 3
      Codec ID : 2000
      Duration : 1h 42mn
      Bit rate mode : Constant
      Bit rate : 448 Kbps
      Channel(s) : 6 channels
      Channel positions : Front: L C R, Surround: L R, LFE
      Sampling rate : 48.0 KHz
      Stream size : 329 MiB (24%)
      Alignment : Split accross interleaves
      Interleave, duration : 40 ms (1.00 video frame)
      Interleave, preload duration : 500 ms

D:\Ясновидящая (2009) DVDRip [Лицензия].avi
   General
      Complete name : D:\Ясновидящая (2009) DVDRip [Лицензия].avi
      Format : AVI
      Format/Info : Audio Video Interleave
      File size : 1.37 GiB
      Duration : 1h 38mn
      Overall bit rate : 1 989 Kbps
      Writing application : VirtualDubMod 1.5.10.2 (build 2540/release)
      Writing library : VirtualDubMod build 2540/release
   Video #0
      ID : 0
      Format : MPEG-4 Visual
      Format profile : Simple@L3
      Format settings, BVOP : Yes
      Format settings, QPel : No
      Format settings, GMC : No warppoints
      Format settings, Matrix : Default (H.263)
      Muxing mode : Packed bitstream
      Codec ID : XVID
      Codec ID/Hint : XviD
      Duration : 1h 38mn
      Bit rate : 1 531 Kbps
      Width : 704 pixels
      Height : 352 pixels
      Display aspect ratio : 2.000
      Frame rate : 25.000 fps
      Resolution : 24 bits
      Colorimetry : 4:2:0
      Scan type : Progressive
      Bits/(Pixel*Frame) : 0.247
      Stream size : 1.05 GiB (77%)
      Writing library : XviD 1.0.2 (UTC 2004-08-29)
   Audio #1
      ID : 1
      Format : AC-3
      Format/Info : Audio Coding 3
      Codec ID : 2000
      Duration : 1h 38mn
      Bit rate mode : Constant
      Bit rate : 448 Kbps
      Channel(s) : 6 channels
      Channel positions : Front: L C R, Surround: L R, LFE
      Sampling rate : 48.0 KHz
      Stream size : 315 MiB (23%)
      Alignment : Split accross interleaves
      Interleave, duration : 40 ms (1.00 video frame)
      Interleave, preload duration : 500 ms
Написано:  07 Фев 2010 08:35
Ну тут советуют попробовать переименовать файлы на англ.язык...
Написано:  07 Фев 2010 09:08
Пепец!!! У меня такой проблемы нету с ВД. другие файлы с рус. названиями играют!!!! Так в чем тут проблема !???
Написано:  07 Фев 2010 09:27
как показала практика, многие фильмы в торрентах имеют расширение Avi, а не mkv как по идее должно быть.

т.е.: скачиваешь фильмы, подключаешь к компу и смотришь чем закодировано (я использую KMPlayer. просто в процессе воспроизведения нажимаешь Tab)
если закодировано VC-1,AVC, MS-DTV и тп.,значит файл должен иметь расширение MKV

если DIVX, XVID и тп - значит AVI

обычно это помогает
__________________
Panasonic TX-PR42U10 + WDTV HD Extended WDTV Gen2 by Padavan + Gi-8120 (NTV+) + Sony HT-DDWG800 + Hanewin NFS Server
Написано:  07 Фев 2010 09:31
остается как я писал выше
заново перекопировать(пару раз) если не поможет,отформатировать жесткий(флешку) с которой смотрится (не забыв предварительно сохранив нужные данные)
__________________
Sharp LC-32X20RU + WDTV Gen2 + WDTV Live (если понравилось 41001352107159 яндекс)
Написано:  07 Фев 2010 12:52
супер!!! Помогло! Я вырезал все неиграющие фильмы на другой диск, а потом их обратно закинул!!! И, фантастика, Фильмы пошли!!! все!!!
спасибо огромное !!!!

Поделитесь со своими друзьями в соцсетях:

WDTV Forum / Форум про WD TV Gen1 / Опыт эксплуатации / Вчера aiv воспроизводился, сегодня нет!!!