Неофициальный клуб пользователей HD видео плеера WD TV


»Юзер: »Пароль:   Запомнить? 
WDTV Forum / Форум про HD фильмы / Эти фильмы не идут / Будет ли нормально пригрываться
Написано:  04 Фев 2010 22:00
Будет ли нормально проигрываться  (без квадратов):
General
Complete name : Time Travelers Wife.2009.BD.Rip.720p.h264.Rus.Eng.mkv
Format : Matroska
File size : 4.71 GiB
Duration : 1h 47mn
Overall bit rate : 6 275 Kbps
Encoded date : UTC 2010-02-03 23:58:00
Writing application : mkvmerge v3.1.0 ('Happy up here') built on Jan 19 2010 12:09:24
Writing library : libebml v0.7.9 + libmatroska v0.8.1
Video
ID : 1
Format : AVC
Format/Info : Advanced Video Codec
Format profile : High@L4.1
Format settings, CABAC : Yes
Format settings, ReFrames : 12 frames
Muxing mode : Container profile=Unknown@4.1
Codec ID : V_MPEG4/ISO/AVC
Duration : 1h 47mn
Bit rate : 4 192 Kbps
Nominal bit rate : 4 317 Kbps
Width : 1 280 pixels
Height : 534 pixels
Display aspect ratio : 2.35:1
Frame rate : 23.976 fps
Resolution : 8 bits
Colorimetry : 4:2:0
Scan type : Progressive
Bits/(Pixel*Frame) : 0.256
Stream size : 3.14 GiB (67%)
Writing library : x264 core 68 r1179M 96e2229
Encoding settings : cabac=1 / ref=12 / deblock=1:-3:-3 / analyse=0x3:0x133 / me=umh / subme=9 / psy_rd=1.1:0.0 / mixed_ref=1 / me_range=48 / chroma_me=1 / trellis=2 / 8x8dct=1 / cqm=0 / deadzone=21,11 / chroma_qp_offset=-2 / threads=12 / nr=0 / decimate=1 / mbaff=0 / bframes=5 / b_pyramid=1 / b_adapt=2 / b_bias=0 / direct=1 / wpredb=1 / keyint=250 / keyint_min=25 / scenecut=40 / rc=2pass / bitrate=4317 / ratetol=1.0 / qcomp=0.60 / qpmin=10 / qpmax=51 / qpstep=4 / cplxblur=20.0 / qblur=0.5 / vbv_maxrate=50000 / vbv_bufsize=50000 / ip_ratio=1.40 / pb_ratio=1.30 / aq=1:0.90
Language : English
Audio #1
ID : 2
Format : AC-3
Format/Info : Audio Coding 3
Codec ID : A_AC3
Duration : 1h 47mn
Bit rate mode : Constant
Bit rate : 448 Kbps
Channel(s) : 6 channels
Channel positions : Front: L C R, Surround: L R, LFE
Sampling rate : 48.0 KHz
Stream size : 344 MiB (7%)
Title : AC3 5.1 448 kbps
Language : Russian
Audio #2
ID : 3
Format : DTS
Format/Info : Digital Theater Systems
Codec ID : A_DTS
Duration : 1h 47mn
Bit rate mode : Constant
Bit rate : 1 510 Kbps
Channel(s) : 6 channels
Channel positions : Front: L C R, Surround: L R, LFE
Sampling rate : 48.0 KHz
Resolution : 24 bits
Stream size : 1.13 GiB (24%)
Title : DTS 5.1 1536 kbps
Language : English
__________________
WDTV-1+ LCD HDReady Panasonic TX-R37LX85+YAMAHA RX-V596RDS +Sharkoon SATA QuickPort+HDD 1T Western Digital WD10EARS+ Yamaha DVD-S557+Samsung DVD-F1080+SatTV-Humax VACI-5300(НТВ+)+Акустика –MBQuart,Canton,Wharfedale
Написано:  04 Фев 2010 22:09
да, всё ок должно быть!
причём как на gen2, так и первом wd tv
__________________
Где купить WD TV: Live Streaming
Написано:  04 Фев 2010 22:15
Спасибо!
__________________
WDTV-1+ LCD HDReady Panasonic TX-R37LX85+YAMAHA RX-V596RDS +Sharkoon SATA QuickPort+HDD 1T Western Digital WD10EARS+ Yamaha DVD-S557+Samsung DVD-F1080+SatTV-Humax VACI-5300(НТВ+)+Акустика –MBQuart,Canton,Wharfedale

Поделитесь со своими друзьями в соцсетях:

WDTV Forum / Форум про HD фильмы / Эти фильмы не идут / Будет ли нормально пригрываться