Неофициальный клуб пользователей HD видео плеера WD TV


»Юзер: »Пароль:   Запомнить? 
WDTV Forum / Форум про WD TV Live / Опыт эксплуатации / проблема со звуком, помогите......
Написано:  04 Фев 2010 01:44
во время просмотра фильмов mkv. качества , на 5-10 Гб,
очень часто слетает русскоязычная аудио дорожка, меняясь на английскую, через 1-5мин, возвращается, и так раз 15 за 2 часа фильма............за ранее спасибо
Написано:  04 Фев 2010 07:45
а может это дорожка такая? частично нет перевода, скажем..
версия фильма не unrated случаем?
__________________
Где купить WD TV: Live Streaming
Написано:  04 Фев 2010 07:54
но как это мне проверить?, ведь смотрел подряд терминатора 4, законопослушного гражданина, идеальный побег, и везде такие баги.....
Написано:  04 Фев 2010 08:00
т.е. во всех фильмах скачет звук?! ого.. это странно
никогда не видел такого эффекта
__________________
Где купить WD TV: Live Streaming
Написано:  04 Фев 2010 08:03
вот за всю историю форума один случай такой был:
http://www.wdhd.ru/board/index.php?a=vtopic&t=84

а откуда качал фильмы?
что за формат? кинь mediainfo посмотреть..
__________________
Где купить WD TV: Live Streaming
Написано:  04 Фев 2010 08:43
если терминатор 4 режиссерская версия то это нормально,там нет озвучки токо сабы
__________________
Sharp LC-32X20RU + WDTV Gen2 + WDTV Live (если понравилось 41001352107159 яндекс)
Написано:  04 Фев 2010 18:33
ИДЕАЛЬНЫЙ ПОБЕГ A.Prefect.Getaway.Director's.Cut.720p.BluRay.DTS.x264.-WiKi.mkv
      Format : Matroska
      File size : 6.85 GiB
      Duration : 1h 47mn
      Overall bit rate : 9 105 Kbps
      Encoded date : UTC 2009-12-03 14:29:19
      Writing application : mkvmerge v2.3.0 ('Freak U') built on Sep  8 2008 18:32:16
      Writing library : libebml v0.7.7 + libmatroska v0.8.1
   
   Audio #2
      ID : 2
      Format : DTS
      Format/Info : Digital Theater Systems
      Codec ID : A_DTS
      Duration : 1h 47mn
      Bit rate mode : Constant
      Bit rate : 1 510 Kbps
      Channel(s) : 6 channels
      Channel positions : Front: L C R, Surround: L R, LFE
      Sampling rate : 48.0 KHz
      Resolution : 24 bits
      Stream size : 1.14 GiB (17%)
   Audio #3
      ID : 3
      Format : AC-3
      Format/Info : Audio Coding 3
      Codec ID : A_AC3
      Duration : 1h 47mn
      Bit rate mode : Constant
      Bit rate : 384 Kbps
      Channel(s) : 6 channels
      Channel positions : Front: L C R, Surround: L R, LFE
      Sampling rate : 48.0 KHz
      Stream size : 296 MiB (4%)

ЗАКОНОПОСЛУШНЫЙ ГРАЖДАНИН Law Abiding Citizen.Unrated.2009.BD.Rip.720p.h264.Rus.Eng.mkv
   
      Format : Matroska
      File size : 4.74 GiB
      Duration : 1h 58mn
      Overall bit rate : 5 744 Kbps
      Encoded date : UTC 2010-01-17 23:03:55
      Writing application : mkvmerge v3.0.0 ('Hang up your Hang-Ups') built on Dec 12 2009 15:20:35
      Writing library : libebml v0.7.9 + libmatroska v0.8.1
   
   Audio #2
      ID : 2
      Format : AC-3
      Format/Info : Audio Coding 3
      Codec ID : A_AC3
      Duration : 1h 58mn
      Bit rate mode : Constant
      Bit rate : 448 Kbps
      Channel(s) : 6 channels
      Channel positions : Front: L C R, Surround: L R, LFE
      Sampling rate : 48.0 KHz
      Stream size : 378 MiB (8%)
      Title : AC3 5.1 448 kbps
      Language : Russian
   Audio #3
      ID : 3
      Format : AC-3
      Format/Info : Audio Coding 3
      Codec ID : A_AC3
      Duration : 1h 58mn
      Bit rate mode : Constant
      Bit rate : 640 Kbps
      Channel(s) : 6 channels
      Channel positions : Front: L C R, Surround: L R, LFE
      Sampling rate : 48.0 KHz
      Stream size : 541 MiB (11%)
      Title : AC3 5.1 640 kbps
      Language : English
   
Z:\КАЧЕСТВО\Терминатор- Да придёт спаситель [Режиссерская версия] - Terminator Salvation [Director's Cut] [1080p].mkv
   General
     
      Format : Matroska
      File size : 12.7 GiB
      Duration : 1h 57mn
      Overall bit rate : 15.4 Mbps
      Encoded date : UTC 2009-11-02 11:52:20
      Writing application : mkvmerge v2.4.0 ('Fumbling Towards Ecstasy') built on Oct 11 2008 20:13:15
      Writing library : libebml v0.7.7 + libmatroska v0.8.1
   
   Audio #2
      ID : 2
      Format : AC-3
      Format/Info : Audio Coding 3
      Codec ID : A_AC3
      Duration : 1h 57mn
      Bit rate mode : Constant
      Bit rate : 448 Kbps
      Channel(s) : 6 channels
      Channel positions : Front: L C R, Surround: L R, LFE
      Sampling rate : 48.0 KHz
      Stream size : 377 MiB (3%)
      Language : Russian
   Audio #3
      ID : 3
      Format : DTS
      Format/Info : Digital Theater Systems
      Codec ID : A_DTS
      Duration : 1h 57mn
      Bit rate mode : Constant
      Bit rate : 1 510 Kbps
      Channel(s) : 6 channels
      Channel positions : Front: L C R, Surround: L R, LFE
      Sampling rate : 48.0 KHz
      Resolution : 24 bits
      Stream size : 1.24 GiB (10%)
      Language : English
Написано:  04 Фев 2010 18:41
ЖЕЛЕЗО : wd live c прошивкой 1.01.00, hdmi кабель, philips 37  5 мод, book на 1 Tb
Написано:  04 Фев 2010 18:43
может эта "игрушка" не предназначена для файлов этого размера, хотя видео нареканий никогда не вызывало  ; )
Написано:  04 Фев 2010 18:59   Отредактировано: alukard
хы читаем название 2 из них режиссерская версия
эта игрушка играет и большие файлы 30-40 гигабайт
__________________
Sharp LC-32X20RU + WDTV Gen2 + WDTV Live (если понравилось 41001352107159 яндекс)
Написано:  04 Фев 2010 19:14
т.е. это есть лучший вариант воспроизведения данных аудиодорог для всех мультимедийных устройств?....я проверить не могу, тк комп "древний" но для чего закидывают тогда эти фильмы, ведь не так много "полиглотов" в рфе?
Написано:  04 Фев 2010 19:17
еще раз перечитываем сообщение это режиссерские версии ,а значит там дополнительные сцены,которые не озвучены(для них специально в эти моменты сделаны сабы)
__________________
Sharp LC-32X20RU + WDTV Gen2 + WDTV Live (если понравилось 41001352107159 яндекс)
Написано:  04 Фев 2010 19:31   Отредактировано: touch
ну понятное дело, unrated и director's cut все фильмы
о чём и говорилось!
суть в чём - это более полные версии фильмов, нежели выходили у нас на dvd/bd, так что тут в некоторых местах просто не может быть дубляжа (не озвучивались они вообще, эти куски).. бывает, что многоголоску подкладывают туда.. а если нет - то субтитры читаем.. если нужен полный перевод - не качай Unrated/Director's Cut версии!
__________________
Где купить WD TV: Live Streaming
Написано:  04 Фев 2010 20:55
спасибо ребят за столь исчерпывающий ответ,буду теперь повнимательней выбирать для просмотров фильмаки, а так wd сила
Написано:  07 Фев 2010 17:25
ЗАПИСАЛ ФИЛЬМ SpartakHDTV 1080
на плеере идёт на английском языке
а при проигрывании на компе,правда в Total media teatre
проигрывание идёт на русском языке
какие то может быть настрой ки надо делать в плеере или в файле фильма может кто что подскаже.
Написано:  07 Фев 2010 17:34
а перешелкнуть аудиодорожку пробывали
__________________
Sharp LC-32X20RU + WDTV Gen2 + WDTV Live (если понравилось 41001352107159 яндекс)
Написано:  07 Фев 2010 21:15
+1 к совету alukard
ну и mediainfo желательно, если дорожка русская таки не включится, поглядим чего там..
__________________
Где купить WD TV: Live Streaming

Поделитесь со своими друзьями в соцсетях:

WDTV Forum / Форум про WD TV Live / Опыт эксплуатации / проблема со звуком, помогите......